2013Zone For Latest Downloads

 
     
 
Legal Downloads » Music » Andras Schiff - J.S. Bach: 6 French Suites, Italian Concerto, French Overture (1993) 2CD
Menu
Home Applications
Games Movies
Music TV Shows
Torrents Graphics

Sitemap

RSS
 
Advanced Search
Last News
Site Info
Top Contributors:
  1    supper88 32766
  2    admin 32711
  3    Whisky 10080
  4    Shark_ 8911
  5    creativelivenew 8706
  6    whathesupa 2799
  7    candymypost 840
  8    hvnteam 629
  9    vuong87 3


Articles:
  This Hour: 0
  Today: 0
  This Month: 0
  All Time: 515501


Torrents:
  Today: 0
  Yesterday: 0
  All Time: 156676


Membership:
  Registered Today :0
  This Hour:0
  This Month:0
  Total:14
  Banned:1

{online}
{inform_torrent}
Friend:
Full Download Scripts
Torrent Download
Trend
Trend

Search In Site

Music : Andras Schiff - J.S. Bach: 6 French Suites, Italian Concerto, French Overture (1993) 2CD
 
http://i60.fastpic.ru/big/2015/1022/68/f5006a95682ae38792f32fe0dd8a0f68.jpg

András Schiff - J.S. Bach: 6 French Suites, Italian Concerto, French Overture (1993) 2CD
EAC | FLAC | Image (Cue&Log) ~ 558 Mb (incl 5%) | Mp3 (CBR320) ~ 386 Mb (incl 5%) | Scans included
Genre: Classical | Label: Decca | # 433 313-2 DH2 | Time: 02:09:15

"András Schiff is one of the best Bach players among Gould, Rosalyn Tureck and Wanda Landowska. On Schiff's French Suites, every part from every suite has a different color and gives you different feeling. Every harmony is taken to its end with care, and dynamic balance is always delightful to listen. Articulation of the notes is excellent, full of humour, and in some places you surely start to smile and you feel very happy when you listen to Schiff. He also plays the slow parts very deeply and warmly, which is for some artists a big problem when playing Bach. There are also Italian Concerto and French Overture on the CD's, played brilliantly, so this set is really worth buying. Recommended for everyone."



Tracklist:

CD1:

French Suite No.1 BWV 812

01. I. Allemande (03:11)
02. II. Courante (01:47)
03. III. Sarabande (02:40)
04. IV. Menuet I (01:01)
05. V. Menuet II (01:49)
06. VI. Gigue (02:11)

French Suite No.2 BWV 813

07. I. Allemande (03:11)
08. II. Courante (01:39)
09. III. Sarabande (03:09)
10. IV. Air (01:31)
11. V. Menuet I (01:23)
12. VI. Menuet II (01:51)
13. VII. Gigue (01:58)

French Suite No.3 BWV 814

14. I. Allemande (03:04)
15. II. Courante (01:51)
16. III. Sarabande (02:46)
17. IV. Anglaise (01:21)
18. V. Menuet - Trio (02:35)
19. VI. Gigue (02:03)

French Suite No.4 BWV 815

20. I. Allemande (01:56)
21. II. Courante (01:43)
22. III. Sarabande (02:25)
23. IV. Gavotte (01:13)
24. V. Air (01:34)
25. VI. Menuet (00:42)
26. VII. Gigue (02:21)

CD2:

French Suite No.5 BWV 816

01. I. Allemande (02:44)
02. II. Courante (01:34)
03. III. Sarabande (04:22)
04. IV. Gavotte (01:13)
05. V. Bourree (01:09)
06. VI. Loure (01:56)
07. VII. Gigue (03:32)

French Suite No.6 BWV 817

08. I. Allemande (02:15)
09. II. Courante (01:31)
10. III. Sarabande (03:23)
11. IV. Gavotte (01:09)
12. V. Polonaise (01:29)
13. VI. Menuet (01:49)
14. VII. Bourree (01:30)
15. VIII. Gigue (02:23)

Italian Concerto BWV 971

16. I. Allegro (03:57)
17. II. Andante (04:47)
18. III. Presto (03:38)

French Overture (Partita) BWV 831

19. I. Ouverture (12:54)
20. II. Courante (02:12)
21. III. Gavottes I & II (03:25)
22. IV. Passepieds I & II (02:06)
23. V. Sarabande (03:29)
24. VI. Bourrees I & II (02:33)
25. VII. Gigue (02:05)
26. VIII. Echo (02:47)


Exact Audio Copy V0.99 prebeta 5 from 4. May 2009

Отчёт EAC об извлечении, выполненном 14. марта 2011, 21:19

Johann Sebastian Bach / 6 French Suites, etc (CD1)

Дисковод: Optiarc DVD RW AD-7203A Adapter: 4 ID: 1

Режим чтения : Достоверность
?спользование точного потока : Да
Отключение кэ?а аудио : Да
?спользование указателей C2 : Нет

Коррекция смещения при чтении : 48
Способность читать области Lead-in и Lead-out : Нет
Заполнение пропущенных сэмплов ти?иной : Да
Удаление блоков с ти?иной в начале и конце : Нет
При вычислениях CRC использовались нулевые сэмплы : Да
?нтерфейс : Встроенный Win32-интерфейс для Win NT/2000

Выходной формат : Пользовательский кодировщик
Выбранный битрейт : 128 kBit/s
Качество : Высокий
Добавление ID3-тэга : Нет
Утилита сжатия : C:\Program Files\FLAC\flac.exe
Дополнительные параметры : -5 -V %s

TOC извлечённого CD Трек | Старт | Длительность | Начальный сектор | Конечный сектор

1 | 0:00.33 | 3:11.00 | 33 | 14357
2 | 3:11.33 | 1:47.50 | 14358 | 22432
3 | 4:59.08 | 2:40.07 | 22433 | 34439
4 | 7:39.15 | 1:01.28 | 34440 | 39042
5 | 8:40.43 | 1:49.72 | 39043 | 47289
6 | 10:30.40 | 2:11.38 | 47290 | 57152
7 | 12:42.03 | 3:11.52 | 57153 | 71529
8 | 15:53.55 | 1:39.00 | 71530 | 78954
9 | 17:32.55 | 3:09.63 | 78955 | 93192
10 | 20:42.43 | 1:31.65 | 93193 | 100082
11 | 22:14.33 | 1:23.72 | 100083 | 106379
12 | 23:38.30 | 1:51.08 | 106380 | 114712
13 | 25:29.38 | 1:58.27 | 114713 | 123589
14 | 27:27.65 | 3:04.08 | 123590 | 137397
15 | 30:31.73 | 1:51.10 | 137398 | 145732
16 | 32:23.08 | 2:46.47 | 145733 | 158229
17 | 35:09.55 | 1:21.73 | 158230 | 164377
18 | 36:31.53 | 2:35.67 | 164378 | 176069
19 | 39:07.45 | 2:03.10 | 176070 | 185304
20 | 41:10.55 | 1:56.45 | 185305 | 194049
21 | 43:07.25 | 1:43.28 | 194050 | 201802
22 | 44:50.53 | 2:25.70 | 201803 | 212747
23 | 47:16.48 | 1:13.27 | 212748 | 218249
24 | 48:30.00 | 1:34.18 | 218250 | 225317
25 | 50:04.18 | 0:42.67 | 225318 | 228534
26 | 50:47.10 | 2:21.33 | 228535 | 239142

Характеристики диапазона извлечения и сообщения об о?ибках

Выбранный диапазон ?мя файла D:\EAC\Johann Sebastian Bach - 6 French Suites, etc (CD1).wav Пиковый уровень 68.3 %
Качество диапазона 100.0 %
CRC теста 11EDB3EA
CRC копии 11EDB3EA
Копирование... OK

О?ибок не произо?ло


AccurateRip: сводка

Трек 1 точное извлечение (доверие 3) [ACFBECE6]
Трек 2 точное извлечение (доверие 3) [0F9F521F]
Трек 3 точное извлечение (доверие 3) [ED429C83]
Трек 4 точное извлечение (доверие 3) D3D2523
Трек 5 точное извлечение (доверие 3) [DC5401BC]
Трек 6 точное извлечение (доверие 3) [D69B8E8E]
Трек 7 точное извлечение (доверие 3) [CE46B968]
Трек 8 точное извлечение (доверие 3) [122572B4]
Трек 9 точное извлечение (доверие 3) [78A1117F]
Трек 10 точное извлечение (доверие 3) [90BFF644]
Трек 11 точное извлечение (доверие 3) [A75E749C]
Трек 12 точное извлечение (доверие 3) [DEE5772B]
Трек 13 точное извлечение (доверие 3) [4698C170]
Трек 14 точное извлечение (доверие 3) [CF968322]
Трек 15 точное извлечение (доверие 3) [33ED9867]
Трек 16 точное извлечение (доверие 3) [DDB6CAB5]
Трек 17 точное извлечение (доверие 3) [8098780B]
Трек 18 точное извлечение (доверие 3) [0D6BC56B]
Трек 19 точное извлечение (доверие 3) [342E8853]
Трек 20 точное извлечение (доверие 3) [5B1B7482]
Трек 21 точное извлечение (доверие 3) [0A993EEC]
Трек 22 точное извлечение (доверие 3) [D5B756D6]
Трек 23 точное извлечение (доверие 3) 9B66E1C
Трек 24 точное извлечение (доверие 3) [C0773255]
Трек 25 точное извлечение (доверие 3) [06554ED6]
Трек 26 точное извлечение (доверие 3) [CCC04962]

Все треки извлечены точно

Конец отчёта

[CUETools log; Date: 21.10.2015 14:31:49; Version: 2.1.4]
Pregap length 00:00:33.
[CTDB TOCID: sMjajxtlx9k3kKtat8NbykQ1p40-] found.
Track | CTDB Status
1 | ( 4/11) Accurately ripped
2 | ( 4/11) Accurately ripped
3 | ( 4/11) Accurately ripped
4 | ( 4/11) Accurately ripped
5 | ( 4/11) Accurately ripped
6 | ( 4/11) Accurately ripped
7 | ( 4/11) Accurately ripped
8 | ( 4/11) Accurately ripped
9 | ( 4/11) Accurately ripped
10 | ( 4/11) Accurately ripped
11 | ( 4/11) Accurately ripped
12 | ( 4/11) Accurately ripped
13 | ( 4/11) Accurately ripped
14 | ( 4/11) Accurately ripped
15 | ( 4/11) Accurately ripped
16 | ( 4/11) Accurately ripped
17 | ( 4/11) Accurately ripped
18 | ( 4/11) Accurately ripped
19 | ( 4/11) Accurately ripped
20 | ( 4/11) Accurately ripped
21 | ( 4/11) Accurately ripped
22 | ( 4/11) Accurately ripped
23 | ( 4/11) Accurately ripped
24 | ( 4/11) Accurately ripped
25 | ( 4/11) Accurately ripped
26 | ( 4/11) Accurately ripped
[AccurateRip ID: 0033bacb-03bcae7c-5c0c741a] found.
Track [ CRC | V2 ] Status
01 [acfbece6|aa6c751a] (04+03/21) Accurately ripped
02 [0f9f521f|adb16596] (04+03/21) Accurately ripped
03 [ed429c83|5e96929f] (04+03/21) Accurately ripped
04 d3d2523|37435c2e (04+03/21) Accurately ripped
05 [dc5401bc|6b27aba4] (04+03/21) Accurately ripped
06 [d69b8e8e|831b7fb6] (04+03/21) Accurately ripped
07 [ce46b968|4b8df5b5] (04+03/21) Accurately ripped
08 [122572b4|9242efcd] (04+03/21) Accurately ripped
09 [78a1117f|db575f0b] (04+03/21) Accurately ripped
10 [90bff644|1d2f3ee3] (04+03/21) Accurately ripped
11 [a75e749c|dfbe0035] (04+03/21) Accurately ripped
12 [dee5772b|112b609b] (04+03/21) Accurately ripped
13 [4698c170|eea9618c] (04+03/21) Accurately ripped
14 [cf968322|139129e2] (04+03/21) Accurately ripped
15 [33ed9867|dbf37db3] (04+03/21) Accurately ripped
16 [ddb6cab5|7c231ca5] (04+03/21) Accurately ripped
17 [8098780b|b2bb92fc] (04+03/21) Accurately ripped
18 [0d6bc56b|cb9ff30c] (04+03/21) Accurately ripped
19 [342e8853|1a29b2c9] (04+03/21) Accurately ripped
20 [5b1b7482|1d16d8e3] (04+03/21) Accurately ripped
21 [0a993eec|519b9a2b] (04+03/21) Accurately ripped
22 [d5b756d6|e0cd743a] (04+03/21) Accurately ripped
23 9b66e1c|8859db34 (04+03/21) Accurately ripped
24 [c0773255|42562869] (04+03/21) Accurately ripped
25 [06554ed6|bdb578de] (04+03/21) Accurately ripped
26 [ccc04962|8ec74f51] (04+03/21) Accurately ripped

Track Peak [ CRC32 ] [W/O NULL] [ LOG ]
-- 68,3 [11EDB3EA] [A54DA9E0] CRC32
01 38,3 [78AEB81D] [0657FBA1]
02 53,1 [80FBD174] [72461853]
03 38,3 [487F6D76] [0BCA17D2]
04 39,0 [74329257] [AC5E71EC]
05 33,9 [8F129930] [451C6E27]
06 68,3 [A708BBEC] [3D6D44D2]
07 44,0 [268CEDB2] [2E7D748E]
08 54,9 [78F1E4D7] [1F0D2CAA]
09 26,4 [F53E7065] [AF5D0028]
10 41,8 [22031F1D] [AFBF13FB]
11 31,6 [29A9B638] [F813B094]
12 26,6 [5FAAC512] [6E3D129A]
13 48,8 [0A07A3E2] [C7076311]
14 35,2 [742ACC14] [053E2D4E]
15 56,8 [1A104DF7] [E7D9FE08]
16 33,4 [8DD8F87F] [FD18749E]
17 51,1 [9914FE40] [492F78E2]
18 43,1 [108B4259] BC5496C
19 57,7 [90EFB39D] [F83BEA31]
20 42,1 [3468CEF6] [3C5BC9C6]
21 44,0 [1F7EA263] [9AC20319]
22 30,8 [240331CC] [6E091EB5]
23 29,6 [A1D8CA36] [D187D541]
24 40,6 [27654478] [CC53C38F]
25 30,3 [9A8F3EF5] [424F50B3]
26 54,5 0ED189F [6829AA0A]

foobar2000 1.2 / Dynamic Range Meter 1.1.1
log date: 2015-10-21 12:31:47

Analyzed: Johann Sebastian Bach / 6 French Suites, etc (CD1)

DR Peak RMS Duration Track

DR10 -8.33 dB -21.41 dB 3:11 01-French Suite No.1 BWV 812 - I. Allemande
DR11 -5.49 dB -18.89 dB 1:48 02-French Suite No.1 BWV 812 - II. Courante
DR12 -8.32 dB -25.32 dB 2:40 03-French Suite No.1 BWV 812 - III. Sarabande
DR10 -8.17 dB -22.31 dB 1:01 04-French Suite No.1 BWV 812 - IV. Menuet I
DR11 -9.38 dB -23.14 dB 1:50 05-French Suite No.1 BWV 812 - V. Menuet II
DR12 -3.30 dB -18.16 dB 2:12 06-French Suite No.1 BWV 812 - VI. Gigue
DR11 -7.12 dB -22.77 dB 3:12 07-French Suite No.2 BWV 813 - I. Allemande
DR11 -5.20 dB -19.32 dB 1:39 08-French Suite No.2 BWV 813 - II. Courante
DR11 -11.56 dB -26.07 dB 3:10 09-French Suite No.2 BWV 813 - III. Sarabande
DR10 -7.56 dB -20.44 dB 1:32 10-French Suite No.2 BWV 813 - IV. Air
DR10 -9.99 dB -22.95 dB 1:24 11-French Suite No.2 BWV 813 - V. Menuet I
DR10 -11.49 dB -24.34 dB 1:51 12-French Suite No.2 BWV 813 - VI. Menuet II
DR11 -6.23 dB -20.99 dB 1:58 13-French Suite No.2 BWV 813 - VII. Gigue
DR11 -9.07 dB -23.65 dB 3:04 14-French Suite No.3 BWV 814 - I. Allemande
DR11 -4.91 dB -19.26 dB 1:51 15-French Suite No.3 BWV 814 - II. Courante
DR11 -9.51 dB -24.67 dB 2:47 16-French Suite No.3 BWV 814 - III. Sarabande
DR11 -5.82 dB -20.79 dB 1:22 17-French Suite No.3 BWV 814 - IV. Anglaise
DR13 -7.31 dB -23.00 dB 2:36 18-French Suite No.3 BWV 814 - V. Menuet - Trio
DR11 -4.77 dB -18.84 dB 2:03 19-French Suite No.3 BWV 814 - VI. Gigue
DR10 -7.51 dB -21.64 dB 1:57 20-French Suite No.4 BWV 815 - I. Allemande
DR11 -7.12 dB -20.65 dB 1:43 21-French Suite No.4 BWV 815 - II. Courante
DR11 -10.20 dB -24.82 dB 2:26 22-French Suite No.4 BWV 815 - III. Sarabande
DR11 -10.57 dB -23.52 dB 1:13 23-French Suite No.4 BWV 815 - IV. Gavotte
DR10 -7.82 dB -20.86 dB 1:34 24-French Suite No.4 BWV 815 - V. Air
DR10 -10.35 dB -23.99 dB 0:43 25-French Suite No.4 BWV 815 - VI. Menuet
DR11 -5.26 dB -19.64 dB 2:21 26-French Suite No.4 BWV 815 - VII. Gigue

Number of tracks: 26
Official DR value: DR11

Samplerate: 44100 Hz
Channels: 2
Bits per sample: 16
Bitrate: 497 kbps
Codec: FLAC

Exact Audio Copy V0.99 prebeta 5 from 4. May 2009

Отчёт EAC об извлечении, выполненном 14. марта 2011, 22:05

Johann Sebastian Bach / 6 French Suites, etc (CD2)

Дисковод: Optiarc DVD RW AD-7203A Adapter: 4 ID: 1

Режим чтения : Достоверность
?спользование точного потока : Да
Отключение кэ?а аудио : Да
?спользование указателей C2 : Нет

Коррекция смещения при чтении : 48
Способность читать области Lead-in и Lead-out : Нет
Заполнение пропущенных сэмплов ти?иной : Да
Удаление блоков с ти?иной в начале и конце : Нет
При вычислениях CRC использовались нулевые сэмплы : Да
?нтерфейс : Встроенный Win32-интерфейс для Win NT/2000

Выходной формат : Пользовательский кодировщик
Выбранный битрейт : 128 kBit/s
Качество : Высокий
Добавление ID3-тэга : Нет
Утилита сжатия : C:\Program Files\FLAC\flac.exe
Дополнительные параметры : -5 -V %s

TOC извлечённого CD Трек | Старт | Длительность | Начальный сектор | Конечный сектор

1 | 0:00.33 | 2:44.42 | 33 | 12374
2 | 2:45.00 | 1:34.33 | 12375 | 19457
3 | 4:19.33 | 4:22.00 | 19458 | 39107
4 | 8:41.33 | 1:13.57 | 39108 | 44639
5 | 9:55.15 | 1:09.43 | 44640 | 49857
6 | 11:04.58 | 1:56.60 | 49858 | 58617
7 | 13:01.43 | 3:32.72 | 58618 | 74589
8 | 16:34.40 | 2:15.68 | 74590 | 84782
9 | 18:50.33 | 1:31.72 | 84783 | 91679
10 | 20:22.30 | 3:23.13 | 91680 | 106917
11 | 23:45.43 | 1:09.42 | 106918 | 112134
12 | 24:55.10 | 1:29.03 | 112135 | 118812
13 | 26:24.13 | 1:49.30 | 118813 | 127017
14 | 28:13.43 | 1:30.67 | 127018 | 133834
15 | 29:44.35 | 2:23.25 | 133835 | 144584
16 | 32:07.60 | 3:57.10 | 144585 | 162369
17 | 36:04.70 | 4:47.70 | 162370 | 183964
18 | 40:52.65 | 3:38.45 | 183965 | 200359
19 | 44:31.35 | 12:54.58 | 200360 | 258467
20 | 57:26.18 | 2:12.62 | 258468 | 268429
21 | 59:39.05 | 3:25.55 | 268430 | 283859
22 | 63:04.60 | 2:06.35 | 283860 | 293344
23 | 65:11.20 | 3:29.45 | 293345 | 309064
24 | 68:40.65 | 2:33.45 | 309065 | 320584
25 | 71:14.35 | 2:05.13 | 320585 | 329972
26 | 73:19.48 | 2:47.25 | 329973 | 342522

Характеристики диапазона извлечения и сообщения об о?ибках

Выбранный диапазон ?мя файла D:\EAC\Johann Sebastian Bach - 6 French Suites, etc (CD2).wav Пиковый уровень 80.0 %
Качество диапазона 100.0 %
CRC теста 8FEACCD0
CRC копии 8FEACCD0
Копирование... OK

О?ибок не произо?ло


AccurateRip: сводка

Трек 1 точность не определена (достоверность 4) [56AE2A22], AccurateRip вернул [9A707D80]
Трек 2 точность не определена (достоверность 4) [ED2094BE], AccurateRip вернул [C30D39EC]
Трек 3 точность не определена (достоверность 4) [02B442E4], AccurateRip вернул [DA44C0F1]
Трек 4 точность не определена (достоверность 4) [2FFDB98A], AccurateRip вернул [5BEA33A9]
Трек 5 точность не определена (достоверность 4) [EE78CBD4], AccurateRip вернул [821DC25D]
Трек 6 точность не определена (достоверность 4) [12DCDEED], AccurateRip вернул [76AB4969]
Трек 7 точность не определена (достоверность 4) [09337062], AccurateRip вернул [C29C750C]
Трек 8 точность не определена (достоверность 4) [D2A735D0], AccurateRip вернул [FECA0BEE]
Трек 9 точность не определена (достоверность 4) [0398AFFB], AccurateRip вернул [E602838D]
Трек 10 точность не определена (достоверность 4) [D4428C46], AccurateRip вернул [E7EDCE66]
Трек 11 точность не определена (достоверность 4) [32187510], AccurateRip вернул [D8D5FBE2]
Трек 12 точность не определена (достоверность 4) [69734C41], AccurateRip вернул [AC3BBFBE]
Трек 13 точность не определена (достоверность 4) [16CD863B], AccurateRip вернул [F56A5BDD]
Трек 14 точность не определена (достоверность 4) [31FA28C4], AccurateRip вернул [673D1A29]
Трек 15 точность не определена (достоверность 4) [F6CB4547], AccurateRip вернул [F8C1C5F9]
Трек 16 точность не определена (достоверность 4) [E8B52E68], AccurateRip вернул [9153B741]
Трек 17 точность не определена (достоверность 3) [FF9B0A1A], AccurateRip вернул [74A4131B]
Трек 18 точность не определена (достоверность 4) [AF39106C], AccurateRip вернул [27E4414F]
Трек 19 точность не определена (достоверность 4) [F5AF43EA], AccurateRip вернул [4D52BE3B]
Трек 20 точность не определена (достоверность 4) [9EAE6CD1], AccurateRip вернул [535168A9]
Трек 21 точность не определена (достоверность 4) [19660D5A], AccurateRip вернул [3EFD9ACD]
Трек 22 точность не определена (достоверность 4) [2129C0CD], AccurateRip вернул [9FCEFE12]
Трек 23 точность не определена (достоверность 4) [7764BF6E], AccurateRip вернул [C11CB360]
Трек 24 точность не определена (достоверность 4) [C635A997], AccurateRip вернул [A72C35FC]
Трек 25 точность не определена (достоверность 4) [39034EA6], AccurateRip вернул [F7A7C76E]
Трек 26 точность не определена (достоверность 4) [C2E4DE6A], AccurateRip вернул [A9EE8597]

Ни один трек не про?ёл проверки на точность
В ва?ей базе может быть иной вариант ?тамповки диска

Конец отчёта

[CUETools log; Date: 21.10.2015 14:32:23; Version: 2.1.4]
Pregap length 00:00:33.
[CTDB TOCID: TFU0gVUr32UjrjTY.aNq.1E9Hew-] found.
Track | CTDB Status
1 | (1/8) Accurately ripped
2 | (1/8) Accurately ripped
3 | (1/8) Accurately ripped
4 | (1/8) Accurately ripped
5 | (1/8) Accurately ripped
6 | (1/8) Accurately ripped
7 | (1/8) Accurately ripped
8 | (1/8) Accurately ripped
9 | (1/8) Accurately ripped
10 | (1/8) Accurately ripped
11 | (1/8) Accurately ripped
12 | (1/8) Accurately ripped
13 | (1/8) Accurately ripped
14 | (1/8) Accurately ripped
15 | (1/8) Accurately ripped
16 | (1/8) Accurately ripped
17 | (1/8) Accurately ripped
18 | (1/8) Accurately ripped
19 | (1/8) Accurately ripped
20 | (1/8) Accurately ripped
21 | (1/8) Accurately ripped
22 | (1/8) Accurately ripped
23 | (1/8) Accurately ripped
24 | (1/8) Accurately ripped
25 | (1/8) Accurately ripped
26 | (1/8) Accurately ripped
[AccurateRip ID: 003fa67f-04cd1acb-9d11d61a] found.
Track [ CRC | V2 ] Status
01 [56ae2a22|7e9487f7] (00+02/19) Accurately ripped
02 [ed2094be|621eaa7d] (00+02/19) Accurately ripped
03 [02b442e4|7ba2a908] (00+02/19) Accurately ripped
04 [2ffdb98a|625ab8ee] (00+02/19) Accurately ripped
05 [ee78cbd4|36d9270b] (00+02/19) Accurately ripped
06 [12dcdeed|7db86eb3] (00+02/19) Accurately ripped
07 [09337062|8e108241] (00+02/19) Accurately ripped
08 [d2a735d0|5f1ad373] (00+02/19) Accurately ripped
09 [0398affb|db2d8168] (00+02/19) Accurately ripped
10 [d4428c46|141889b7] (00+02/19) Accurately ripped
11 [32187510|08a34b3c] (00+02/19) Accurately ripped
12 [69734c41|f22409f4] (00+02/19) Accurately ripped
13 [16cd863b|e75a5b10] (00+02/19) Accurately ripped
14 [31fa28c4|659b6825] (00+02/19) Accurately ripped
15 [f6cb4547|b64ebb41] (00+02/19) Accurately ripped
16 [e8b52e68|6ac3b70b] (00+02/18) Accurately ripped
17 [ff9b0a1a|bb7c2ba2] (00+02/18) Accurately ripped
18 [af39106c|646b51fa] (00+02/19) Accurately ripped
19 [f5af43ea|2a14c308] (00+02/19) Accurately ripped
20 [9eae6cd1|e54066e0] (00+02/19) Accurately ripped
21 [19660d5a|eee922c2] (00+02/19) Accurately ripped
22 [2129c0cd|1f5434f6] (00+02/19) Accurately ripped
23 [7764bf6e|5193e630] (00+02/19) Accurately ripped
24 [c635a997|a686bd34] (00+02/18) Accurately ripped
25 [39034ea6|16d4a7f3] (00+02/19) Accurately ripped
26 [c2e4de6a|141d10e4] (00+02/19) Accurately ripped

Track Peak [ CRC32 ] [W/O NULL] [ LOG ]
-- 80,0 [8FEACCD0] [D4D7ECF1] CRC32
01 37,1 [758F12F0] [90F33344]
02 49,3 [E782065C] [3FBE8344]
03 30,1 [7B253FA7] [60304E08]
04 39,5 [807415FD] [60E83C7C]
05 45,4 [2F4E0A86] [623CE03F]
06 31,5 [F3CE1100] [ECBE2DFB]
07 54,9 2C1D89C [CF11AA98]
08 47,5 [CACCA9F1] [9CE8B070]
09 43,0 [DEE9EFBA] [7F9C6ED9]
10 39,9 [023DDDD0] [71D1D7CA]
11 39,7 [14F51471] [277E90DA]
12 25,4 [4C990BA9] [7BC83AF8]
13 26,2 [96DAD60B] [36722A13]
14 50,8 [271244B1] [ACC665B7]
15 52,1 [6169A300] [DEF4321B]
16 57,2 [05F135EE] [C2C48355]
17 25,6 [70DD2295] [04C83619]
18 71,0 [31283FA2] [4B9D2907]
19 67,8 [F8F86FB6] [9E6302B9]
20 28,6 [3A35A371] [191C2D99]
21 41,5 [38DE64D2] [57F94BC5]
22 50,8 [6C88D4AE] [2AE7F38A]
23 30,9 [1733F1E0] [60C830EA]
24 43,5 [24236AF4] [E771DEAC]
25 47,3 [D0D82EB0] [D9A6BAAD]
26 80,0 [14D46C2E] [75F923EC]

foobar2000 1.2 / Dynamic Range Meter 1.1.1
log date: 2015-10-21 12:32:09

Analyzed: Johann Sebastian Bach / 6 French Suites, etc (CD2)

DR Peak RMS Duration Track

DR11 -8.61 dB -22.89 dB 2:45 01-French Suite No.5 BWV 816 - I. Allemande
DR12 -6.14 dB -20.40 dB 1:34 02-French Suite No.5 BWV 816 - II. Courante
DR12 -10.41 dB -26.67 dB 4:22 03-French Suite No.5 BWV 816 - III. Sarabande
DR11 -8.06 dB -23.06 dB 1:14 04-French Suite No.5 BWV 816 - IV. Gavotte
DR12 -6.84 dB -21.11 dB 1:10 05-French Suite No.5 BWV 816 - V. Bourree
DR12 -10.03 dB -26.73 dB 1:57 06-French Suite No.5 BWV 816 - VI. Loure
DR12 -5.20 dB -20.76 dB 3:33 07-French Suite No.5 BWV 816 - VII. Gigue
DR12 -6.45 dB -21.10 dB 2:16 08-French Suite No.6 BWV 817 - I. Allemande
DR11 -7.32 dB -20.58 dB 1:32 09-French Suite No.6 BWV 817 - II. Courante
DR12 -7.97 dB -25.14 dB 3:23 10-French Suite No.6 BWV 817 - III. Sarabande
DR11 -8.01 dB -21.79 dB 1:10 11-French Suite No.6 BWV 817 - IV. Gavotte
DR10 -11.90 dB -24.66 dB 1:29 12-French Suite No.6 BWV 817 - V. Polonaise
DR11 -11.62 dB -24.67 dB 1:49 13-French Suite No.6 BWV 817 - VI. Menuet
DR11 -5.87 dB -20.56 dB 1:31 14-French Suite No.6 BWV 817 - VII. Bourree
DR11 -5.65 dB -19.73 dB 2:23 15-French Suite No.6 BWV 817 - VIII. Gigue
DR12 -4.85 dB -20.28 dB 3:57 16-Italian Concerto BWV 971 - I. Allegro
DR11 -11.83 dB -27.80 dB 4:48 17-Italian Concerto BWV 971 - II. Andante
DR11 -2.97 dB -20.20 dB 3:39 18-Italian Concerto BWV 971 - III. Presto
DR13 -3.37 dB -19.89 dB 12:55 19-French Overture (Partita) BWV 831 - I. Ouverture
DR11 -10.86 dB -24.79 dB 2:13 20-French Overture (Partita) BWV 831 - II. Courante
DR13 -7.63 dB -23.47 dB 3:26 21-French Overture (Partita) BWV 831 - III. Gavottes I & II
DR12 -5.87 dB -21.29 dB 2:06 22-French Overture (Partita) BWV 831 - IV. Passepieds I & II
DR13 -10.18 dB -27.05 dB 3:30 23-French Overture (Partita) BWV 831 - V. Sarabande
DR11 -7.23 dB -22.15 dB 2:34 24-French Overture (Partita) BWV 831 - VI. Bourrees I & II
DR12 -6.50 dB -23.08 dB 2:05 25-French Overture (Partita) BWV 831 - VII. Gigue
DR13 -1.94 dB -18.76 dB 2:47 26-French Overture (Partita) BWV 831 - VIII. Echo

Number of tracks: 26
Official DR value: DR12

Samplerate: 44100 Hz
Channels: 2
Bits per sample: 16
Bitrate: 497 kbps
Codec: FLAC

http://i58.fastpic.ru/big/2015/1022/70/d66e3bf814af739412fecfad1887f670.jpg

All thanks to original releaser - GFox
Password: designol

DOWNLOAD LINKS:
Buy Premium To Support Me & Get Resumable Support & Max Speed


Links are Interchangeable - No Password - Single Extraction

Andras Schiff - J.S. Bach: 6 French Suites, Italian Concerto, French Overture (1993) 2CD Fast Download



 
 
 
Dear visitor, you went to the site as an unregistered user. We encourage you to register or enter the site under your name.
 
   
 
 (Votes #: 0)