2013Zone For Latest Downloads

 
     
 
Legal Downloads » Music » Art Blakey and His Jazz Messengers - Art's Break! (1972) {2014 Japan Studio Songs Remaster YZSO Series}
Menu
Home Applications
Games Movies
Music TV Shows
Torrents Graphics

Sitemap

RSS
 
Advanced Search
Last News
Site Info
Top Contributors:
  1    supper88 32766
  2    admin 32711
  3    Whisky 10080
  4    Shark_ 8911
  5    creativelivenew 8706
  6    whathesupa 2799
  7    candymypost 840
  8    hvnteam 629
  9    vuong87 3


Articles:
  This Hour: 0
  Today: 0
  This Month: 0
  All Time: 515501


Torrents:
  Today: 0
  Yesterday: 0
  All Time: 156676


Membership:
  Registered Today :0
  This Hour:0
  This Month:0
  Total:14
  Banned:1

{online}
{inform_torrent}
Friend:
Full Download Scripts
Torrent Download
Trend
Trend

Search In Site

Music : Art Blakey and His Jazz Messengers - Art's Break! (1972) {2014 Japan Studio Songs Remaster YZSO Series}
 

http://i33.fastpic.ru/big/2015/1023/d0/17a4f6b6236b0fe45f450c8e1fc07cd0.jpg
Art Blakey and His Jazz Messengers - Art's Break! (1972) {2014 Japan Studio Songs Remaster YZSO Series}
EAC rip (secure mode) | FLAC (tracks)+CUE+LOG -> 106 Mb | MP3 @320 -> 86 Mb
Full Artwork @ 600 dpi (png) -> 162 Mb | 5% repair rar
© 2014 Studio Songs Japan | YZSO-10048 | Mono
Jazz / Hard Bop

"Art's Break! captured the legendary drummer and bandleader Art Blakey and his Messengers in Oslo and Tunis in 1969. This version of the Jazz Messengers consisted of Bill Hardman on trumpet, David Schnitter on tenor sax, Mickey Tucker on piano and Cameron Brown on bass. At least that's the information provided by Joker, the original European label who released this material. However, there are some questions regarding the accuracy of this information. The Japanese annotator for this release notes that if the listed personnel is correct these performances must have been recorded in the mid 1970s. Some also claim that the trumpeter is Woody Shaw and the (soprano) sax player is Carter Jefferson."

http://i57.fastpic.ru/big/2015/1023/b2/584d5426a7911781ad5e7002732cf8b2.jpg


Personnel:
Art Blakey (drums)
Bill Hardman (trumpet)
David Schnitter (tenor sax)
Mickey Tucker (piano)
Cameron Brown (bass)

tracklist:
01 - Bird Like
02 - Whisper Not
03 - Blues March
04 - Perception

Exact Audio Copy V1.1 from 23. June 2015

EAC extraction logfile from 21. October 2015, 21:13

Art Blakey and His Jazz Messengers / Art's Break!

Used drive : TSSTcorpCDDVDW SE-208DB Adapter: 7 ID: 0

Read mode : Secure
Utilize accurate stream : Yes
Defeat audio cache : Yes
Make use of C2 pointers : No

Read offset correction

: 6
Overread into Lead-In and Lead-Out : No
Fill up missing offset samples with silence : Yes
Delete leading and trailing silent blocks : No
Null samples used in CRC calculations : Yes
Used interface
: Installed external ASPI interface
Gap handling
: Appended to previous track

Used output format : User Defined Encoder
Selected bitrate : 1024 kBit/s
Quality : High
Add ID3 tag : No
Command line compressor : C:\Program Files (x86)\FLAC Frontend\tools\flac.exe
Additional command line options : -8 -V -T "ARTIST=%artist%" -T "TITLE=%title%" -T "ALBUM=%albumtitle%" -T "DATE=%year%" -T "TRACKNUMBER=%tracknr%" -T "TOTALTRACKS=%numtracks%" -T "GENRE=%genre%" -T "ALBUMARTIST=%albumartist%" -T "ALBUM ARTIST=%albumartist%" -T "COMMENT=EAC Secure Mode, Test & Copy, AccurateRip, FLAC -8" %source%

TOC of the extracted CD Track | Start | Length | Start sector | End sector
--1 | 0:00.37 | 10:59.42 | 37 | 49503 2 | 11:00.04 | 8:25.60 | 49504 | 87438 3 | 19:25.64 | 10:21.20 | 87439 | 134033 4 | 29:47.09 | 9:48.18 | 134034 | 178151

Track 1 Filename M:\_EAC\Art Blakey and His Jazz Messengers - Art's Break! (1972) [FLAC] {2014 Japan YZSO Series}\01 - Bird Like.wav Pre-gap length 0:00:02.37 Peak level 94.3 %
Extraction speed 1.3 X
Track quality 100.0 %
Test CRC 6A681AF5
Copy CRC 6A681AF5
Accurately ripped (confidence 1) 8032A41 (AR v2)
Copy OK

Track 2 Filename M:\_EAC\Art Blakey and His Jazz Messengers - Art's Break! (1972) [FLAC] {2014 Japan YZSO Series}\02 - Whisper Not.wav Peak level 88.9 %
Extraction speed 1.6 X
Track quality 100.0 %
Test CRC 6074FA35
Copy CRC 6074FA35
Accurately ripped (confidence 1) [7DD18940] (AR v2)
Copy OK

Track 3 Filename M:\_EAC\Art Blakey and His Jazz Messengers - Art's Break! (1972) [FLAC] {2014 Japan YZSO Series}\03 - Blues March.wav Pre-gap length 0:00:01.46 Peak level 84.2 %
Extraction speed 1.9 X
Track quality 100.0 %
Test CRC 242A24F8
Copy CRC 242A24F8
Accurately ripped (confidence 1) [98C77B35] (AR v2)
Copy OK

Track 4 Filename M:\_EAC\Art Blakey and His Jazz Messengers - Art's Break! (1972) [FLAC] {2014 Japan YZSO Series}\04 - Perception.wav Pre-gap length 0:00:01.09 Peak level 77.3 %
Extraction speed 2.1 X
Track quality 100.0 %
Test CRC 6AA12FBA
Copy CRC 6AA12FBA
Accurately ripped (confidence 1) [7AF2974F] (AR v2)
Copy OK

All tracks accurately ripped

No errors occurred

End of status report

==== Log checksum 47F8402D08B759BB9BCAD50BA29E3B6B6562358DB6C9026441A03C9E3BF58B73 ====

http://i60.fastpic.ru/big/2015/1023/95/0045a26b6df03505b695232a330eb295.jpg

http://i33.fastpic.ru/big/2015/1023/53/6e314d31918fbceed731201ec0072c53.jpg






NEXT -> More Studio Songs Japan YZSO Series...
DOWNLOAD LINKS:
Buy Premium To Support Me & Get Resumable Support & Max Speed


Links are Interchangeable - No Password - Single Extraction

Art Blakey and His Jazz Messengers - Art's Break! (1972) {2014 Japan Studio Songs Remaster YZSO Series} Fast Download



 
 
 
Dear visitor, you went to the site as an unregistered user. We encourage you to register or enter the site under your name.
 
   
 
 (Votes #: 0)