2013Zone For Latest Downloads

 
     
 
Legal Downloads » Music » Miriodor - Parade + Live At Nearfest (2005)
Menu
Home Applications
Games Movies
Music TV Shows
Torrents Graphics

Sitemap

RSS
 
Advanced Search
Last News
Site Info
Top Contributors:
  1    supper88 32766
  2    admin 32711
  3    Whisky 10080
  4    Shark_ 8911
  5    creativelivenew 8706
  6    whathesupa 2799
  7    candymypost 840
  8    hvnteam 629
  9    vuong87 3


Articles:
  This Hour: 0
  Today: 0
  This Month: 0
  All Time: 515501


Torrents:
  Today: 0
  Yesterday: 0
  All Time: 156676


Membership:
  Registered Today :0
  This Hour:0
  This Month:0
  Total:14
  Banned:1

{online}
{inform_torrent}
Friend:
Full Download Scripts
Torrent Download
Trend
Trend

Search In Site

Music : Miriodor - Parade + Live At Nearfest (2005)
 
http://i57.fastpic.ru/big/2015/1022/92/fe2f75dd14977458a7a62e6a63d71392.jpg

Miriodor - Parade + Live At Nearfest (2005)
Rock | 2cd | EAC Rip | Flac + Cue + Log | covers
Cuneiform, Rune208-209 | rel: 2005 | 785Mb

Everyone loves a Parade -- or at least they should love the CD by that name, the sixth Miriodor disc on the Cuneiform label, released as the band celebrated its 25th anniversary. The title is apt, as listeners are likely to feel as if they are indeed sitting in folding chairs at curbside, witnessing a particularly phantasmagorical array of parade floats roll past. The 16 tunes, ranging from less than a minute to nearly seven minutes in length, are often densely packed with ideas yet paradoxically light in feel, offering up something new for the senses at every turn.
The music is both entertainingly accessible and startlingly inventive, filled with more sonic details than can be grasped in a single listen, with the keyboard voicings alone (vibes, marimba, accordion, harpsichord, grand piano, and Farfisa anyone?) causing the listener's head to spin, yet always used in service of the compositions in which they appear. Parade finds the core quartet of guitarist Bernard Falaise, keyboardist Pascal Globensky, drummer/electronician Rémi Leclerc, and bassist/keyboardist Nicolas Masino supplemented, as they were on 2001's Mekano, by saxophonist Marie-Chantal Leclair and violinist Marie-Soleil Bélanger on a number of tracks, adding additional voicings, melodies, and countermelodies to the often intricate arrangements. Miriodor jumps out of the gate with "Pyramide" and "Scarabee," two concise, tight, and quirky tunes, before throwing curve balls at the listener, such as the truly cinematic, multi-sectioned "Polar" that sweeps into view later in this particular Parade. However, the first indication of the CD's true depth and range arrives with "Uppsala," a tune that begins in upbeat fashion as keyboards, guitar, and soprano sax toss brief lines back and forth in counterpoint and the bass and drums lead the tune into an episode of what might be called Miriodor funk. But then "Uppsala" abruptly shifts into a ghostly passage with a sustained keyboard chord underpinning the moody bassoon of guest musician Lise Millet, recalling the work of Michel Berckmans or Sven Aarflot with Lars Hollmer. The track then explodes into a hard-driving climax that might cause Adrian Belew to sign up for some guitar classes from Falaise, were the Montreal axeman looking for a way to earn some extra cash on the side. Perhaps the biggest surprise of "Uppsala," however, is that Hollmer doesn't play on it, since the tune clearly references the Swedish composer/keyboardist -- who does appear on three subsequent tracks, having recorded his contributions at the Chickenhouse near, of course, Uppsala. The tracks featuring Hollmer are noteworthy, particularly "Bonsai Givre," a multi-sectioned number that flows organically into dreamy, spacy interludes with Hollmer's accordion and vocal expertly woven into the group's overall sound, and the concluding "Foret Dense," encompassing drama, mystery, darkness, and light while ending the CD on a chamberesque note. Parade is packaged as part of a two-CD set including a bonus disc featuring the entire Miriodor set from the 2002 NEARfest in Trenton, NJ. The sextet performs tracks mainly from Mekano and Jongleries Élastiques in spirited fashion, effectively captured by mixage wizards Pierre Girard and Bob Drake. The biggest kick might be hearing the band win over the crowd as the set progresses -- after the crescendos of "Mme X" wind down into solitary harpsichord-ish ostinatos, the 1,800-plus audience seems to realize what a phenomenal performance it is witnessing, and erupts with thunderous applause. Perhaps the audience realized that it had better cheer at that point, because even though Miriodor appeared early on the first day of the fest, it would be hard to imagine any of the following groups being anything other than a letdown. Kudos to the festival organizers for giving Miriodor a spectacular live forum, richly deserved by one of the finest bands ever to emerge from the Quebec musique actuelle scene. ~Allmusic
-

http://i58.fastpic.ru/big/2015/1022/5f/10d0412b4f3f75d46d24dea13dbae25f.jpg

Miriodor - CD1: Parade
Cuneiform, Rune208 | 380Mb


Track listing
cd1:
01. Pyramide (3:38)
02. Scarabee (3:25)
03. Caramba! (0:50)
04. Uppsala (5:52)
05. Tartine (1:34)
06. Contrees liquides (5:45)
07. Polar (6:35)
08. Boite ŕ surprises (4:08)
09. Checkpoint Charlie (3:21)
10. Talrika (5:01)
11. Le cruciverbiste (5:29)
12. Gavotte chetive (1:58)
13. Bonsai givre (6:48)
14. Boite ŕ rebuts (2:00)
15. Preparatifs de vacances (1:20)
16. Foret dense (6:21)
~ (64:04)

Exact Audio Copy V0.99 prebeta 4 from 23. January 2008

Отчёт EAC об извлечении, выполненном 8. января 2009, 1:34

Miriodor / Parade

Дисковод: Optiarc DVD RW AD-7191S Adapter: 2 ID: 0

Режим чтения : Достоверность
?спользование точного потока : Да
Отключение кэ?а аудио : Да
?спользование указателей C2 : Нет

Коррекция смещения при чтении : 6
Способность читать области Lead-in и Lead-out : Нет
Заполнение пропущенных сэмплов ти?иной : Да
Удаление блоков с ти?иной в начале и конце : Нет
При вычислениях CRC использовались нулевые сэмплы : Да
?нтерфейс : Встроенный Win32-интерфейс для Win NT/2000

Выходной формат : Пользовательский кодировщик
Выбранный битрейт : 768 kBit/s
Качество : Высокий
Добавление ID3-тэга : Нет
Утилита сжатия : C:\Program Files\Exact Audio Copy\FLAC\FLAC.EXE
Дополнительные параметры : -6 -V -T "ARTIST=%a" -T "TITLE=%t" -T "ALBUM=%g" -T "DATE=%y" -T "TRACKNUMBER=%n" -T "GENRE=%m" -T "COMMENT=%e" %s -o %d

TOC извлечённого CD Трек | Старт | Длительность | Начальный сектор | Конечный сектор

1 | 0:00.00 | 3:38.17 | 0 | 16366
2 | 3:38.17 | 3:24.38 | 16367 | 31704
3 | 7:02.55 | 0:49.60 | 31705 | 35439
4 | 7:52.40 | 5:51.55 | 35440 | 61819
5 | 13:44.20 | 1:33.60 | 61820 | 68854
6 | 15:18.05 | 5:44.47 | 68855 | 94701
7 | 21:02.52 | 6:35.03 | 94702 | 124329
8 | 27:37.55 | 4:08.25 | 124330 | 142954
9 | 31:46.05 | 3:21.02 | 142955 | 158031
10 | 35:07.07 | 5:01.33 | 158032 | 180639
11 | 40:08.40 | 5:28.70 | 180640 | 205309
12 | 45:37.35 | 1:57.50 | 205310 | 214134
13 | 47:35.10 | 6:47.60 | 214135 | 244719
14 | 54:22.70 | 2:00.35 | 244720 | 253754
15 | 56:23.30 | 1:19.40 | 253755 | 259719
16 | 57:42.70 | 6:21.05 | 259720 | 288299

Характеристики диапазона извлечения и сообщения об о?ибках

Выбранный диапазон ?мя файла F:\U-TORRENT\Miriodor - Parade + Live\Parade\Miriodor - Parade.wav Пиковый уровень 100.0 %
Качество диапазона 100.0 %
CRC копии 8A4485AC
Копирование... OK

О?ибок не произо?ло


AccurateRip: сводка

Трек 1 точное извлечение (доверие 2) [1C8FA31C]
Трек 2 точное извлечение (доверие 2) [F89DDA14]
Трек 3 точное извлечение (доверие 2) 9EF66EB
Трек 4 точное извлечение (доверие 2) [E3697BE6]
Трек 5 точное извлечение (доверие 2) [6367C099]
Трек 6 точное извлечение (доверие 2) [FA154B46]
Трек 7 точное извлечение (доверие 2) [280319A9]
Трек 8 точное извлечение (доверие 2) [4F59FE77]
Трек 9 точное извлечение (доверие 2) [37FF2D2E]
Трек 10 точное извлечение (доверие 2) [131C4A86]
Трек 11 точное извлечение (доверие 2) [0E062C7D]
Трек 12 точное извлечение (доверие 2) [4B493E4E]
Трек 13 точное извлечение (доверие 2) [9FB24543]
Трек 14 точное извлечение (доверие 2) [548D91D5]
Трек 15 точное извлечение (доверие 2) [46F8809F]
Трек 16 точное извлечение (доверие 2) [DC75C1D8]

Все треки извлечены точно

Конец отчёта

[CUETools log; Date: 2015.10.20. 9:59:31; Version: 2.1.5]
HDCD: peak extend: some, transient filter: some, gain: none
[CTDB TOCID: pO0UaUk4a9rq5sRLIHUNMKx5yNc-] found.
Track | CTDB Status
1 | (3/3) Accurately ripped
2 | (3/3) Accurately ripped
3 | (3/3) Accurately ripped
4 | (3/3) Accurately ripped
5 | (3/3) Accurately ripped
6 | (3/3) Accurately ripped
7 | (3/3) Accurately ripped
8 | (3/3) Accurately ripped
9 | (3/3) Accurately ripped
10 | (3/3) Accurately ripped
11 | (3/3) Accurately ripped
12 | (3/3) Accurately ripped
13 | (3/3) Accurately ripped
14 | (3/3) Accurately ripped
15 | (3/3) Accurately ripped
16 | (3/3) Accurately ripped
[AccurateRip ID: 002453f2-01bb1ce9-df0f0410] found.
Track [ CRC | V2 ] Status
01 [1c8fa31c|a6a744a4] (07+06/13) Accurately ripped
02 [f89dda14|80e22d10] (07+06/13) Accurately ripped
03 9ef66eb|6d0b409b (07+06/13) Accurately ripped
04 [e3697be6|861092f3] (07+06/13) Accurately ripped
05 [6367c099|8adb7db1] (07+06/13) Accurately ripped
06 [fa154b46|aaebad1a] (07+06/13) Accurately ripped
07 [280319a9|f91b7c48] (07+06/13) Accurately ripped
08 [4f59fe77|79580819] (07+06/13) Accurately ripped
09 [37ff2d2e|337ef402] (07+06/13) Accurately ripped
10 [131c4a86|cee3a785] (07+06/13) Accurately ripped
11 [0e062c7d|f5787ac5] (07+06/13) Accurately ripped
12 [4b493e4e|16a7a356] (07+06/13) Accurately ripped
13 [9fb24543|9952f9c4] (07+06/13) Accurately ripped
14 [548d91d5|ee71d17b] (07+06/13) Accurately ripped
15 [46f8809f|cc849231] (07+06/13) Accurately ripped
16 [dc75c1d8|c6352a25] (07+06/13) Accurately ripped

Track Peak [ CRC32 ] [W/O NULL]
-- 100,0 [8A4485AC] [32468C12]
01 100,0 [0D76BC12] [FADC794C]
02 100,0 [0EDCBBF7] B805DB9
03 91,7 [8E95CA3C] A894BDA
04 99,5 [54524202] [45F2A485]
05 97,6 [5E3A874B] 8DDB4DC
06 98,8 [6BA45EBE] [47CE35D1]
07 99,4 [7E01D6E6] [36C87B94]
08 99,1 [0AF5C31B] [6E669707]
09 90,3 [84052CDA] DFAAA35
10 99,3 [AEFD6199] [5BFF920B]
11 98,4 1846525 [CD84105D]
12 97,5 [E9CF5175] [2664B431]
13 98,3 [AE652B1B] [112767E7]
14 99,5 [60EB2E5B] [6F4DA1F9]
15 98,0 [339BCDB2] 0AF6406
16 99,6 [CBE00DCD] [E28D42D7]

-

http://i67.fastpic.ru/big/2015/1022/d4/a208f6f4ff9d4c712bcd584cb50860d4.jpg

Miriodor - CD2: Live At Nearfest
Cuneiform, Rune209 | rec: 2002 | 395Mb


Track listing
cd2:
01. La Celebre Boucle (0:39)
02. Le Regne Des Termites (4:08)
03. Toutes Proportions Gardees (6:48)
04. Mine De Rien (3:45)
05. Singularite (5:42)
06. L'Inevitable (5:43)
07. Mangeurs De Masters (3:53)
08. Le Sorcier (5:54)
09. Mme X (7:46)
10. Le Fantome De M.C. Escher (6:15)
11. Le Roi Soldat (4:16)
12. Pas ŕ Ce Que Je Sache (6:31)
13. Igor, L'Ours ŕ Moto (6:52)
~ (68:12)

Exact Audio Copy V0.99 prebeta 4 from 23. January 2008

Отчёт EAC об извлечении, выполненном 8. января 2009, 1:45

Miriodor / Live At Nearfest

Дисковод: Optiarc DVD RW AD-7191S Adapter: 2 ID: 0

Режим чтения : Достоверность
?спользование точного потока : Да
Отключение кэ?а аудио : Да
?спользование указателей C2 : Нет

Коррекция смещения при чтении : 6
Способность читать области Lead-in и Lead-out : Нет
Заполнение пропущенных сэмплов ти?иной : Да
Удаление блоков с ти?иной в начале и конце : Нет
При вычислениях CRC использовались нулевые сэмплы : Да
?нтерфейс : Встроенный Win32-интерфейс для Win NT/2000

Выходной формат : Пользовательский кодировщик
Выбранный битрейт : 768 kBit/s
Качество : Высокий
Добавление ID3-тэга : Нет
Утилита сжатия : C:\Program Files\Exact Audio Copy\FLAC\FLAC.EXE
Дополнительные параметры : -6 -V -T "ARTIST=%a" -T "TITLE=%t" -T "ALBUM=%g" -T "DATE=%y" -T "TRACKNUMBER=%n" -T "GENRE=%m" -T "COMMENT=%e" %s -o %d

TOC извлечённого CD Трек | Старт | Длительность | Начальный сектор | Конечный сектор

1 | 0:00.00 | 0:38.41 | 0 | 2890
2 | 0:38.41 | 4:08.14 | 2891 | 21504
3 | 4:46.55 | 6:47.58 | 21505 | 52087
4 | 11:34.38 | 3:45.33 | 52088 | 68995
5 | 15:19.71 | 5:42.19 | 68996 | 94664
6 | 21:02.15 | 5:43.33 | 94665 | 120422
7 | 26:45.48 | 3:52.45 | 120423 | 137867
8 | 30:38.18 | 5:54.14 | 137868 | 164431
9 | 36:32.32 | 7:46.22 | 164432 | 199403
10 | 44:18.54 | 6:15.00 | 199404 | 227528
11 | 50:33.54 | 4:16.07 | 227529 | 246735
12 | 54:49.61 | 6:30.43 | 246736 | 276028
13 | 61:20.29 | 6:51.60 | 276029 | 306913

Характеристики диапазона извлечения и сообщения об о?ибках

Выбранный диапазон ?мя файла F:\U-TORRENT\Miriodor - Parade + Live\Live at Nearfest\Miriodor - Live At Nearfest.wav Пиковый уровень 97.0 %
Качество диапазона 100.0 %
CRC копии 1AB56C90
Копирование... OK

О?ибок не произо?ло


AccurateRip: сводка

Трек 1 нет в базе данных
Трек 2 нет в базе данных
Трек 3 нет в базе данных
Трек 4 нет в базе данных
Трек 5 нет в базе данных
Трек 6 нет в базе данных
Трек 7 нет в базе данных
Трек 8 нет в базе данных
Трек 9 нет в базе данных
Трек 10 нет в базе данных
Трек 11 нет в базе данных
Трек 12 нет в базе данных
Трек 13 нет в базе данных

Ни одного трека нет в базе AccurateRip

Конец отчёта

[CUETools log; Date: 2015.10.20. 10:02:47; Version: 2.1.5]
[CTDB TOCID: uyzRlgVfcBDIbyr9LcQt8VXRJgA-] found.
Track | CTDB Status
1 | (3/3) Accurately ripped
2 | (3/3) Accurately ripped
3 | (3/3) Accurately ripped
4 | (3/3) Accurately ripped
5 | (3/3) Accurately ripped
6 | (3/3) Accurately ripped
7 | (3/3) Accurately ripped
8 | (3/3) Accurately ripped
9 | (3/3) Accurately ripped
10 | (3/3) Accurately ripped
11 | (3/3) Accurately ripped
12 | (3/3) Accurately ripped
13 | (3/3) Accurately ripped
[AccurateRip ID: 001d49f8-013091d5-ac0ffc0d] found.
Track [ CRC | V2 ] Status
01 40fb79e|ad12a170 (06+05/11) Accurately ripped
02 [23ba424d|eb0515c7] (06+05/11) Accurately ripped
03 [aa5b1b45|049d83a0] (06+05/11) Accurately ripped
04 [759d5f6b|b19aeebc] (06+05/11) Accurately ripped
05 [24231212|de2025a1] (06+05/11) Accurately ripped
06 [e7940f72|792c0a88] (06+05/11) Accurately ripped
07 [8780e205|752299c5] (06+05/11) Accurately ripped
08 [9c778860|9ca0b58a] (06+05/11) Accurately ripped
09 [015e59f2|12c7cf0a] (06+05/11) Accurately ripped
10 [6ee10ba1|e9bedf16] (06+05/11) Accurately ripped
11 [5bd2ddca|4a736495] (06+05/11) Accurately ripped
12 [7be4e74b|6f50b058] (06+05/11) Accurately ripped
13 [ae0ebdfe|33c673d5] (06+05/11) Accurately ripped

Track Peak [ CRC32 ] [W/O NULL]
-- 97,0 [1AB56C90] [C4188133]
01 21,2 [829D28DE] [72C82807]
02 96,5 [DED990B1] [6E71F00C]
03 96,6 [A7F5AE80] [48EB0977]
04 96,6 [7B5A3D52] [854CF497]
05 96,6 [82DB5F57] [9B45D7C7]
06 96,6 [F5D99F61] [CD326C2E]
07 88,6 [6D29E8A1] [7CE690A6]
08 97,0 [63460D1A] [68E17177]
09 92,7 F9D040A [218F8AAF]
10 96,6 [5E281637] [0C8F6268]
11 96,0 [0D707172] [5AA080AC]
12 96,6 [1B8832AC] [E8F142D2]
13 96,1 [5A8F7D06] 61D1A26

Thx to Гость
password: asd
DOWNLOAD LINKS:
Buy Premium To Support Me & Get Resumable Support & Max Speed


Links are Interchangeable - No Password - Single Extraction

Miriodor - Parade + Live At Nearfest (2005) Fast Download



 
 
 
Dear visitor, you went to the site as an unregistered user. We encourage you to register or enter the site under your name.
 
   
 
 (Votes #: 0)