2013Zone For Latest Downloads

 
     
 
Legal Downloads » Music » Randall Bramblett - Devil Music (2015)
Menu
Home Applications
Games Movies
Music TV Shows
Torrents Graphics

Sitemap

RSS
 
Advanced Search
Last News
Site Info
Top Contributors:
  1    supper88 32766
  2    admin 32711
  3    Whisky 10080
  4    Shark_ 8911
  5    creativelivenew 8706
  6    whathesupa 2799
  7    candymypost 840
  8    hvnteam 629
  9    vuong87 3


Articles:
  This Hour: 0
  Today: 0
  This Month: 0
  All Time: 515501


Torrents:
  Today: 0
  Yesterday: 0
  All Time: 156676


Membership:
  Registered Today :0
  This Hour:0
  This Month:0
  Total:14
  Banned:1

{online}
{inform_torrent}
Friend:
Full Download Scripts
Torrent Download
Trend
Trend

Search In Site

Music : Randall Bramblett - Devil Music (2015)
 
http://i48.fastpic.ru/big/2015/1023/91/49f660840c725a9befa80fea38ce2691.jpg

Randall Bramblett - Devil Music (2015)
EAC | FLAC | Image (Cue&Log) ~ 344 Mb (incl 5%) | Scans included | Time: 00:49:49
Genre: Blues Rock, Contemporary Singer/Songwriter | Label: New West | # NW6440

"A man with as much experience as he has ingenuity, Randall Bramblett has been a singer-songwriter, a session musician, and a hired gun for legends such as Gregg Allman and Steve Winwod. Bramblett's latest release from his more than thirty years in the business, Devil Music, delivers the expected level of virtuosity, and surprises with a deep-fried, novel twist of Southern darkness. "Dead in the Water," the album's lead single is equally fulfilled through evocative lyrics, well-timed and managed effects, and instrumental superiority; a narrative of nowhere, the track is populated by dead-end characters and lowly living; fitting, for a track that Bramblett claims is inspired by William S. Burroughs. While immersing itself in the wonderfully weird, infinitely spiraling darkness of whimsy that exemplifies some of Tom Waits' best work, "Dead in the Water" sees a guest appearance by storied axeman Mark Knopfler."

"Devil Music, the tenth album by singer, songwriter, and multi-instrumentalist Randall Bramblett, is a dark, swampy groovefest. Its 11 songs may depict broken characters, lost causes, wandering souls, and haunted spirits, but the songwriter celebrates them for who and what they are and revels unapologetically in their flaws and triumphs. Bramblett employs a musical patchwork of contemporary sonics and rhythms to extend the margins of blues, R&B, and gospel without watering them down. The core band features guitarists Davis Causey and Nick Johnson, drummer/producer/engineer Gerry Hansen, and either Michael Steele or Michael Rhodes on bass. They are augmented by occasional horns, a pair of percussionists, and a few heavy-hitting guests. "Dead in the Water" -- about being trapped in crime and addiction -- employs Bramblett's slippery Hammond B-3 to drive a rumbling bass and guitar vamp over a snare and bass-drum shuffle. His distorted, cracking vocal is pierced by Mark Knopfler's atypically meaty guitar lines. The title track offers a tale from Howlin' Wolf's biography about visiting his mama after his success. Her response? "Get away from me devil." The hip-hop rhythm, ambient loops, horns, and greasy guitar ride are pushed into the red by a quaking bass, and the vocal -- "Mama, I can't stop/Playin' that devil music/I got the devil music/Down in my soul" -- chills the marrow. In "Angel Child," a rounder tries to seduce an innocent while freely admitting his moral bankruptcy. Ballsy. Derek Trucks' wrangling, tonally rich slide guitar contrasts beautifully with Bramblett's slithering, soulful vocal. "Pride in Place" is a grimy, choogling blues-rocker, with punchy guitars, pulsing bassline, rattling tom-toms, and spiny keyboards under a desperate confessional narrative: "When you want to love somebody/With all your damaged soul/You don't want to know about/The fire that started that you can't control...." Former Sea Level bandmate Chuck Leavell adds spicy, New Orleans-style blues piano to the swaggering R&B in "Reptile Pilot." "Whiskey Headed Woman" filters noir-ish jazz-blues and modern R&B through the lens of D'Angelo's Voodoo. "Thing for You" is a cut-time, bumping soul tune with Bramblett's Wurlitzer piano (and tenor saxophone break) punching through brittle snares and silvery electric guitars. His singing -- especially in the falsetto -- soars effortlessly above the unshakable rhythm section. Lyrically, his songs balance conscientious rational choices against addictions and base human instincts through the paths and pitfalls of living in the boardroom or on the societal fringes. Devil Music may feel like an outlier in Bramblett's catalog, but restless experimentation has always been his trademark. The production, though far from slick, may initially startle, but through it, Bramblett reveals tradition to be a living, evolving process rather than a group of fixed archival notions.

Review by Thom Jurek, Allmusic.com
"




Tracklist:

01. Dead In The Water (04:23)
02. Devil Music (04:49)
03. Bottom Of The Ocean (03:49)
04. Angel Child (04:50)
05. Pride In Place (03:55)
06. Reptile Pilot (03:19)
07. Whiskey Headed Woman (05:53)
08. Strong Love (04:34)
09. Ride (05:46)
10. Thing For You (04:44)
11. Missing Link (03:43)


Exact Audio Copy V1.1 from 23. June 2015

EAC extraction logfile from 22. October 2015, 12:58

Randall Bramblett / Devil Music

Used drive : ASUS SDRW-08D1S-U Adapter: 1 ID: 1

Read mode : Secure
Utilize accurate stream : Yes
Defeat audio cache : Yes
Make use of C2 pointers : No

Read offset correction

: 667
Overread into Lead-In and Lead-Out : No
Fill up missing offset samples with silence : Yes
Delete leading and trailing silent blocks : No
Null samples used in CRC calculations : Yes
Used interface
: Native Win32 interface for Win NT & 2000

Used output format : User Defined Encoder
Selected bitrate : 128 kBit/s
Quality : High
Add ID3 tag : No
Command line compressor : C:\Program Files (x86)\Exact Audio Copy\Flac\flac.exe
Additional command line options : -V -8 -T "Date=%year%" -T "Genre=%genre%" %source%

TOC of the extracted CD Track | Start | Length | Start sector | End sector
--1 | 0:00.00 | 4:23.27 | 0 | 19751 2 | 4:23.27 | 4:49.17 | 19752 | 41443 3 | 9:12.44 | 3:49.24 | 41444 | 58642 4 | 13:01.68 | 4:50.14 | 58643 | 80406 5 | 17:52.07 | 3:55.52 | 80407 | 98083 6 | 21:47.59 | 3:19.53 | 98084 | 113061 7 | 25:07.37 | 5:53.68 | 113062 | 139604 8 | 31:01.30 | 4:34.14 | 139605 | 160168 9 | 35:35.44 | 5:46.02 | 160169 | 186120
10 | 41:21.46 | 4:44.53 | 186121 | 207473
11 | 46:06.24 | 3:43.14 | 207474 | 224212

Range status and errors

Selected range Filename C:\Users\Олег\Desktop\Randall Bramblett\Randall Bramblett - Devil Music.wav Peak level 98.7 %
Extraction speed 3.1 X
Range quality 100.0 %
Test CRC FAD1C63D
Copy CRC FAD1C63D
Copy OK

No errors occurred


AccurateRip summary

Track 1 accurately ripped (confidence 1) [C6A81938] (AR v2)
Track 2 accurately ripped (confidence 1) [6AC62128] (AR v2)
Track 3 accurately ripped (confidence 1) [610DF177] (AR v2)
Track 4 accurately ripped (confidence 1) [E8563FCF] (AR v2)
Track 5 accurately ripped (confidence 1) [6CA63E94] (AR v2)
Track 6 accurately ripped (confidence 1) [9D2B11CF] (AR v2)
Track 7 accurately ripped (confidence 1) [601D8E27] (AR v2)
Track 8 accurately ripped (confidence 1) [756C53F5] (AR v2)
Track 9 accurately ripped (confidence 1) [009A4D59] (AR v2)
Track 10 accurately ripped (confidence 1) [31B7C63C] (AR v2)
Track 11 accurately ripped (confidence 1) [696EC4AC] (AR v2)

All tracks accurately ripped

End of status report

- CUETools DB Plugin V2.1.6

[CTDB TOCID: O5j4oS4acWDj_1yrPTxs0t.aw_g-] disk not present in database
Submit result: O5j4oS4acWDj_1yrPTxs0t.aw_g- has been uploaded

==== Log checksum 0030ADB7FF36DADDB99CAC59166442348239E5A325C0BD418FFF31D5D50B82A1 ====

foobar2000 1.2 / Dynamic Range Meter 1.1.1
log date: 2015-10-22 16:57:02

Analyzed: Randall Bramblett / Devil Music

DR Peak RMS Duration Track

DR7 -0.12 dB -8.49 dB 4:23 01-Dead In The Water
DR7 -0.20 dB -10.51 dB 4:49 02-Devil Music
DR7 -0.20 dB -8.60 dB 3:49 03-Bottom Of The Ocean
DR7 -0.20 dB -10.17 dB 4:50 04-Angel Child
DR6 -0.11 dB -8.30 dB 3:56 05-Pride In Place
DR8 -0.20 dB -10.49 dB 3:20 06-Reptile Pilot
DR10 -0.20 dB -11.44 dB 5:54 07-Whiskey Headed Woman
DR6 -0.20 dB -8.84 dB 4:34 08-Strong Love
DR11 -0.20 dB -13.35 dB 5:46 09-Ride
DR8 -0.20 dB -10.40 dB 4:45 10-Thing For You
DR7 -0.20 dB -8.44 dB 3:43 11-Missing Link

Number of tracks: 11
Official DR value: DR8

Samplerate: 44100 Hz
Channels: 2
Bits per sample: 16
Bitrate: 879 kbps
Codec: FLAC

http://i59.fastpic.ru/big/2015/1023/78/49ffd0337161dd6e8268a85e63e35578.jpg

http://i57.fastpic.ru/big/2015/1023/bb/691e77eb4a206267f156d144565f75bb.jpg

All thanks to original releaser - Alex Fal
Password: designol

DOWNLOAD LINKS:
Buy Premium To Support Me & Get Resumable Support & Max Speed


Links are Interchangeable - No Password - Single Extraction

Randall Bramblett - Devil Music (2015) Fast Download



 
 
 
Dear visitor, you went to the site as an unregistered user. We encourage you to register or enter the site under your name.
 
   
 
 (Votes #: 0)