2013Zone For Latest Downloads

 
     
 
Legal Downloads » Music » Andras Schiff - Beethoven: Piano Sonata No. 32 op. 111, Diabelli-Variationen op. 120, Sechs Bagatellen op. 126 (2013) 2CD
Menu
Home Applications
Games Movies
Music TV Shows
Torrents Graphics

Sitemap

RSS
 
Advanced Search
Last News
Site Info
Top Contributors:
  1    supper88 32766
  2    admin 32708
  3    Whisky 10080
  4    Shark_ 8911
  5    creativelivenew 8706
  6    whathesupa 2799
  7    candymypost 840
  8    hvnteam 629
  9    vuong87 3


Articles:
  This Hour: 0
  Today: 0
  This Month: 17
  All Time: 515518


Torrents:
  Today: 0
  Yesterday: 0
  All Time: 156676


Membership:
  Registered Today :0
  This Hour:0
  This Month:0
  Total:14
  Banned:1

{online}
{inform_torrent}
Friend:
Full Download Scripts
Torrent Download
Trend
Trend

Search In Site

Music : Andras Schiff - Beethoven: Piano Sonata No. 32 op. 111, Diabelli-Variationen op. 120, Sechs Bagatellen op. 126 (2013) 2CD
 
http://i48.fastpic.ru/big/2015/1023/6a/8ac267e093209ec3506cbea8efa0576a.jpg

András Schiff - Beethoven: Piano Sonata No. 32 op. 111, Diabelli-Variationen op. 120, Sechs Bagatellen op. 126 (2013) 2CD
EAC | FLAC | Image (Cue&Log) ~ 452 Mb (incl 5%) | Mp3 (CBR320) ~ 398 Mb (incl 5%) | Scans included
Genre: Classical | Label: ECM | # ECM New Series 2294/95, 481 0446 | Time: 02:29:32

"ECM New Series is better known for its documentation of contemporary works, but the music of the past sometimes receives coverage when artists bring a new perspective to it. The Diabelli Variations, Op. 120; the Sonata No. 32 in C minor, Op. 111; and the Six Bagatelles, Op. 126, are among the most original and intellectually stimulating works Ludwig van Beethoven composed for the piano, and the sophisticated interpretations of András Schiff are especially worthwhile for their insights into authentic performance practice and reception. Here, Schiff gives the listener options between a relatively modern sounding version of the Diabelli Variations and a period interpretation, without favoring one or the other."

"The discography of the Diabelli Variations is already distinguished but here's a remarkable addition to it. Two performances are offered, one on an original piano of the early 1820s (by Franz Brodmann, a little-known Viennese maker), the other on a modern grand by Bechstein, built in 1921, that has survived to our day without major restorations. Why? Because, in Schiff's words, it's always a joy to play on wonderful instruments, and in the course of studying Beethoven's work he saw an opportunity to capitalise on good fortune by presenting views of it in two different sound worlds. So, take your pick: the Brodmann, if you want the experience of a lovely Hammerflügel from near the work's source; or the beautiful Bechstein from the interwar years when concert and recording artists could enjoy a greater variety of piano sound than has existed since. I do like Schiff. He brings an agenda with him (and why not?), but throughout the double CD he delights with insights and a feast of fine playing, excellently recorded; and his focus on the music never wavers.

It's been said that there's no other work that contains so many different features of Beethoven's genius. The Diabelli Variations are a tough call, and of course one wants to hear as many fine versions as one can. Brendel's, for me, has long been a benchmark, in particular for his wondrous ease in conveying the ?profound levity' of late Beethoven. But Schiff's mastery of the early piano enables him to bring to the fore another important aspect that concert performances today often overlook: their intimacy. The Viennese fortepiano, even a sophisticated example such as this, was essentially a domestic instrument. When quite close to it you can be invited to overhear the performer, and I'm sure this was Beethoven's intention, not infrequently. In the modern concert hall, which he never knew, we tend to expect, as a norm, a projection of his piano music in terms of a constant dramatic articulation. A falsification? Well, it can be; but it never is here, and I'll risk the suggestion, too, that Schiff's immersion in Bach is a good direction to come from when attempting the heights and depths of these variations. Sample the ?homage to Bach' Fughetta (Var 24 - tr 27 on the Bechstein version on disc 1, and tr 25 on the Brodmann on disc 2). Praise be as well that appropriate acoustics have been taken into account: the chamber music hall in the Bonn Beethovenhaus is ideal for the fortepiano and the Bechstein resounds perfectly in the Auditorium of Swiss Radio in Lugano.

And there's more. Disc 1 is completed by a fine account of Beethoven's last sonata, the C minor, Op 111, that touches high distinction in the Arietta second movement; and the recital on the Brodmann concludes with Beethoven's last thoughts for the piano, the Six Bagatelles, Op 126. These fit the 1820s piano like a glove, their ?open pedal' effects not excepted, and they glow with a range of colour, light and shade that Schiff modulates expertly.

Do not hold back. I started out with feelings of uncertainty as to the fortepiano's adequacy to encompass the ranges of expression and sonorities explored by Beethoven in these late works. They reach out, after all, to the limits of known territory in his day. Unimportant passing reservations aside, I've been convinced of the success with which pianist and both instruments inhabit everything undertaken here and meet its challenges. It's an impressive achievement.

Review by Stephen Plaistow, Gramophone.co.uk
"




Tracklist:

CD1:

Sonate Nr. 32 in c-Moll op. 111:

01. I. Maestoso - Allegro con brio ed appassionato (08:54)
02. II. Arietta. Adagio molto e cantabile (17:30)

Diabelli-Variationen op. 120:

03. Thema. Vivace (00:45)
04. Var. I - Alla marcia maestoso (01:38)
05. Var. II - Poco allegro (00:48)
06. Var. III - L'istesso tempo (01:20)
07. Var. IV - Un poco piu vivace (00:59)
08. Var. V - Allegro vivace (00:58)
09. Var. VI - Allegro ma non troppo e serioso (01:35)
10. Var. VII - Un poco piu allegro (01:08)
11. Var. VIII - Poco vivace (01:28)
12. Var. IX - Allegro pesante e risoluto (01:52)
13. Var. X - Presto (00:41)
14. Var. XI - Allegretto (01:09)
15. Var. XII - Un poco piu moto (01:00)
16. Var. XIII - Vivace (01:11)
17. Var. XIV - Grave e maestoso (03:34)
18. Var. XV - Presto scherzando (00:37)
19. Var. XVI - Allegro (01:02)
20. Var. XVII (01:03)
21. Var. XVIII - Poco moderato (01:35)
22. Var. XIX - Presto (00:58)
23. Var. XX - Andante (01:43)
24. Var. XXI - Allegro con brio (01:09)
25. Var. XXII - Allegro molto (alla 'Notte e giorno faticar' di Mozart) (00:38)
26. Var. XXIII - Allegro assai (00:55)
27. Var. XXIV - Fughetta. Andante (02:32)
28. Var. XXV - Allegro (00:52)
29. Var. XXVI (01:28)
30. Var. XXVII - Vivace (01:01)
31. Var. XXVIII - Allegro (01:05)
32. Var. XXIX - Adagio ma non troppo (01:09)
33. Var. XXX - Andante, sempre cantabile (01:46)
34. Var. XXXI - Largo molto, espressivo (04:31)
35. Var. XXXII - Fuga. Allegro - Poco adagio (02:53)
36. Var. XXXIII - Tempo di Menuetto moderato (04:12)

CD2:

Diabelli-Variationen op. 120:

01. Thema. Vivace (00:48)
02. Var. I - Alla marcia maestoso (01:39)
03. Var. II - Poco allegro (00:54)
04. Var. III - L'istesso tempo (01:25)
05. Var. IV - Un poco piu vivace (01:01)
06. Var. V - Allegro vivace (00:59)
07. Var. VI - Allegro ma non troppo e serioso (01:40)
08. Var. VII - Un poco piu allegro (01:13)
09. Var. VIII - Poco vivace (01:31)
10. Var. IX - Allegro pesante e risoluto (01:56)
11. Var. X - Presto (00:44)
12. Var. XI - Allegretto (01:07)
13. Var. XII - Un poco piu moto (01:05)
14. Var. XIII - Vivace (01:12)
15. Var. XIV - Grave e maestoso (03:31)
16. Var. XV - Presto scherzando (00:39)
17. Var. XVI - Allegro (01:02)
18. Var. XVII (01:09)
19. Var. XVIII - Poco moderato (01:40)
20. Var. XIX - Presto (00:59)
21. Var. XX - Andante (01:49)
22. Var. XXI - Allegro con brio (01:10)
23. Var. XXII - Allegro molto (alla 'Notte e giorno faticar' di Mozart) (00:43)
24. Var. XXIII - Allegro assai (00:58)
25. Var. XXIV - Fughetta. Andante (02:34)
26. Var. XXV - Allegro (00:53)
27. Var. XXVI (01:29)
28. Var. XXVII - Vivace (01:04)
29. Var. XXVIII - Allegro (01:12)
30. Var. XXIX - Adagio ma non troppo (01:11)
31. Var. XXX - Andante, sempre cantabile (01:57)
32. Var. XXXI - Largo molto, espressivo (04:30)
33. Var. XXXII - Fuga. Allegro - Poco adagio (03:01)
34. Var. XXXIII - Tempo di Menuetto moderato (04:17)

Sechs Bagatellen op. 126:

35. I. Andante con moto cantabile e compiacevole (02:54)
36. II. Allegro (02:56)
37. III. Andante cantabile e grazioso (02:23)
38. IV. Presto (03:44)
39. V. Quasi Allegretto (02:16)
40. VI. Presto - Andante amabile e con moto (04:01)


Exact Audio Copy V1.0 beta 3 from 29. August 2011

Отчёт EAC об извлечении, выполненном 12. октября 2013, 12:06

András Schiff / Beethoven - Diabelli-Variationen (Disc 1)

Дисковод: HL-DT-STDVDRAM GT33N Adapter: 1 ID: 0

Режим чтения : Достоверность
?спользование точного потока : Да
Отключение кэ?а аудио : Да
?спользование указателей C2 : Нет

Коррекция смещения при чтении : 103
Способность читать области Lead-in и Lead-out : Нет
Заполнение пропущенных сэмплов ти?иной : Да
Удаление блоков с ти?иной в начале и конце : Нет
При вычислениях CRC использовались нулевые сэмплы : Да
?нтерфейс : Встроенный Win32-интерфейс для Win NT/2000

Выходной формат : Пользовательский кодировщик
Выбранный битрейт : 1024 kBit/s
Качество : Высокий
Добавление ID3-тега : Да
Утилита сжатия : C:\Program Files (x86)\Exact Audio Copy\Flac\flac.exe
Дополнительные параметры : -8 -V -T "ALBUMARTIST=%albumartist%" -T "ALBUM=%albumtitle%" -T "DATE=%year%" -T "TRACKTOTAL=%numtracks%" -T "GENRE=%genre%" -T "COMMENT=%comment%" -T "PERFORMER=%albuminterpret%" -T "COMPOSER=%composer%" %source% -o %dest%

TOC извлечённого CD Трек | Старт | Длительность | Начальный сектор | Конечный сектор

1 | 0:00.00 | 8:54.48 | 0 | 40097
2 | 8:54.48 | 17:30.27 | 40098 | 118874
3 | 26:25.00 | 0:45.02 | 118875 | 122251
4 | 27:10.02 | 1:38.41 | 122252 | 129642
5 | 28:48.43 | 0:48.57 | 129643 | 133299
6 | 29:37.25 | 1:20.25 | 133300 | 139324
7 | 30:57.50 | 0:59.48 | 139325 | 143797
8 | 31:57.23 | 0:58.69 | 143798 | 148216
9 | 32:56.17 | 1:35.35 | 148217 | 155376
10 | 34:31.52 | 1:08.73 | 155377 | 160549
11 | 35:40.50 | 1:28.51 | 160550 | 167200
12 | 37:09.26 | 1:52.56 | 167201 | 175656
13 | 39:02.07 | 0:41.57 | 175657 | 178788
14 | 39:43.64 | 1:09.08 | 178789 | 183971
15 | 40:52.72 | 1:00.01 | 183972 | 188472
16 | 41:52.73 | 1:11.28 | 188473 | 193825
17 | 43:04.26 | 3:34.39 | 193826 | 209914
18 | 46:38.65 | 0:37.28 | 209915 | 212717
19 | 47:16.18 | 1:02.45 | 212718 | 217412
20 | 48:18.63 | 1:03.04 | 217413 | 222141
21 | 49:21.67 | 1:35.48 | 222142 | 229314
22 | 50:57.40 | 0:58.17 | 229315 | 233681
23 | 51:55.57 | 1:43.37 | 233682 | 241443
24 | 53:39.19 | 1:09.02 | 241444 | 246620
25 | 54:48.21 | 0:38.14 | 246621 | 249484
26 | 55:26.35 | 0:55.50 | 249485 | 253659
27 | 56:22.10 | 2:32.52 | 253660 | 265111
28 | 58:54.62 | 0:52.43 | 265112 | 269054
29 | 59:47.30 | 1:28.48 | 269055 | 275702
30 | 61:16.03 | 1:01.44 | 275703 | 280321
31 | 62:17.47 | 1:05.09 | 280322 | 285205
32 | 63:22.56 | 1:09.15 | 285206 | 290395
33 | 64:31.71 | 1:46.57 | 290396 | 298402
34 | 66:18.53 | 4:31.70 | 298403 | 318797
35 | 70:50.48 | 2:53.15 | 318798 | 331787
36 | 73:43.63 | 4:12.30 | 331788 | 350717

Характеристики диапазона извлечения и сообщения об о?ибках

Выбранный диапазон ?мя файла O:\!Rips\Beethoven - Diabelli-Variationen (Disc 1).wav Пиковый уровень 88.4 %
Скорость извлечения 2.3 X
Качество диапазона 99.9 %
CRC теста 3CD1A132
CRC копии 3CD1A132
Копирование... OK

О?ибок не произо?ло


AccurateRip: сводка

Трек 1 отсутствует в базе данных
Трек 2 отсутствует в базе данных
Трек 3 отсутствует в базе данных
Трек 4 отсутствует в базе данных
Трек 5 отсутствует в базе данных
Трек 6 отсутствует в базе данных
Трек 7 отсутствует в базе данных
Трек 8 отсутствует в базе данных
Трек 9 отсутствует в базе данных
Трек 10 отсутствует в базе данных
Трек 11 отсутствует в базе данных
Трек 12 отсутствует в базе данных
Трек 13 отсутствует в базе данных
Трек 14 отсутствует в базе данных
Трек 15 отсутствует в базе данных
Трек 16 отсутствует в базе данных
Трек 17 отсутствует в базе данных
Трек 18 отсутствует в базе данных
Трек 19 отсутствует в базе данных
Трек 20 отсутствует в базе данных
Трек 21 отсутствует в базе данных
Трек 22 отсутствует в базе данных
Трек 23 отсутствует в базе данных
Трек 24 отсутствует в базе данных
Трек 25 отсутствует в базе данных
Трек 26 отсутствует в базе данных
Трек 27 отсутствует в базе данных
Трек 28 отсутствует в базе данных
Трек 29 отсутствует в базе данных
Трек 30 отсутствует в базе данных
Трек 31 отсутствует в базе данных
Трек 32 отсутствует в базе данных
Трек 33 отсутствует в базе данных
Трек 34 отсутствует в базе данных
Трек 35 отсутствует в базе данных
Трек 36 отсутствует в базе данных

Ни одного трека нет в базе AccurateRip

Конец отчёта

==== Контрольная сумма отчёта FDAA3B93E95A2A90D4D27849CE636B5A98CEE4D59E3976927D9D06A0CFB56BBA ====

foobar2000 1.2 / Dynamic Range Meter 1.1.1
log date: 2015-10-22 17:56:17

Analyzed: Andras Schiff / Beethoven - Diabelli-Variationen (Disc 1)

DR Peak RMS Duration Track

DR15 -1.07 dB -22.38 dB 8:55 01-Sonate Nr. 32 in c-Moll op. 111: I. Maestoso - Allegro con brio ed appassionato
DR16 -1.11 dB -24.79 dB 17:30 02-II. Arietta. Adagio molto e cantabile
DR14 -2.01 dB -21.56 dB 0:45 03-Diabelli-Variationen op. 120: Thema. Vivace
DR15 -1.10 dB -20.03 dB 1:39 04-Var. I - Alla marcia maestoso
DR13 -14.24 dB -32.07 dB 0:49 05-Var. II - Poco allegro
DR13 -9.71 dB -28.44 dB 1:20 06-Var. III - L'istesso tempo
DR16 -1.81 dB -23.05 dB 1:00 07-Var. IV - Un poco piu vivace
DR13 -2.34 dB -21.43 dB 0:59 08-Var. V - Allegro vivace
DR13 -4.83 dB -22.55 dB 1:35 09-Var. VI - Allegro ma non troppo e serioso
DR11 -6.11 dB -20.69 dB 1:09 10-Var. VII - Un poco piu allegro
DR13 -10.33 dB -29.65 dB 1:29 11-Var. VIII - Poco vivace
DR14 -3.20 dB -21.88 dB 1:53 12-Var. IX - Allegro pesante e risoluto
DR14 -2.26 dB -22.75 dB 0:42 13-Var. X - Presto
DR13 -9.39 dB -28.46 dB 1:09 14-Var. XI - Allegretto
DR13 -6.66 dB -28.33 dB 1:00 15-Var. XII - Un poco piu moto
DR15 -1.95 dB -22.66 dB 1:11 16-Var. XIII - Vivace
DR17 -1.20 dB -23.64 dB 3:35 17-Var. XIV - Grave e maestoso
DR11 -12.62 dB -27.63 dB 0:37 18-Var. XV - Presto scherzando
DR13 -4.57 dB -20.48 dB 1:03 19-Var. XVI - Allegro
DR12 -1.06 dB -20.17 dB 1:03 20-Var. XVII
DR13 -10.52 dB -28.88 dB 1:36 21-Var. XVIII - Poco moderato
DR13 -3.71 dB -21.44 dB 0:58 22-Var. XIX - Presto
DR14 -17.59 dB -37.41 dB 1:43 23-Var. XX - Andante
DR12 -5.99 dB -22.31 dB 1:09 24-Var. XXI - Allegro con brio
DR14 -4.37 dB -23.73 dB 0:38 25-Var. XXII - Allegro molto (alla 'Notte e giorno faticar' di Mozart)
DR16 -1.11 dB -20.03 dB 0:56 26-Var. XXIII - Allegro assai
DR13 -13.47 dB -31.88 dB 2:33 27-Var. XXIV - Fughetta. Andante
DR14 -3.92 dB -26.05 dB 0:53 28-Var. XXV - Allegro
DR13 -7.24 dB -27.44 dB 1:29 29-Var. XXVI
DR13 -6.14 dB -22.96 dB 1:02 30-Var. XXVII - Vivace
DR15 -3.18 dB -20.40 dB 1:05 31-Var. XXVIII - Allegro
DR14 -8.16 dB -29.76 dB 1:09 32-Var. XXIX - Adagio ma non troppo
DR15 -14.39 dB -33.78 dB 1:47 33-Var. XXX - Andante, sempre cantabile
DR14 -7.94 dB -28.02 dB 4:32 34-Var. XXXI - Largo molto, espressivo
DR15 -2.55 dB -21.43 dB 2:53 35-Var. XXXII - Fuga. Allegro - Poco adagio
DR17 -4.31 dB -27.61 dB 4:12 36-Var. XXXIII - Tempo di Menuetto moderato

Number of tracks: 36
Official DR value: DR14

Samplerate: 44100 Hz
Channels: 2
Bits per sample: 16
Bitrate: 372 kbps
Codec: FLAC

Exact Audio Copy V1.0 beta 3 from 29. August 2011

Отчёт EAC об извлечении, выполненном 12. октября 2013, 13:38

András Schiff / Beethoven - Diabelli-Variationen (Disc 2)

Дисковод: HL-DT-STDVDRAM GT33N Adapter: 1 ID: 0

Режим чтения : Достоверность
?спользование точного потока : Да
Отключение кэ?а аудио : Да
?спользование указателей C2 : Нет

Коррекция смещения при чтении : 103
Способность читать области Lead-in и Lead-out : Нет
Заполнение пропущенных сэмплов ти?иной : Да
Удаление блоков с ти?иной в начале и конце : Нет
При вычислениях CRC использовались нулевые сэмплы : Да
?нтерфейс : Встроенный Win32-интерфейс для Win NT/2000

Выходной формат : Пользовательский кодировщик
Выбранный битрейт : 1024 kBit/s
Качество : Высокий
Добавление ID3-тега : Да
Утилита сжатия : C:\Program Files (x86)\Exact Audio Copy\Flac\flac.exe
Дополнительные параметры : -8 -V -T "ALBUMARTIST=%albumartist%" -T "ALBUM=%albumtitle%" -T "DATE=%year%" -T "TRACKTOTAL=%numtracks%" -T "GENRE=%genre%" -T "COMMENT=%comment%" -T "PERFORMER=%albuminterpret%" -T "COMPOSER=%composer%" %source% -o %dest%

TOC извлечённого CD Трек | Старт | Длительность | Начальный сектор | Конечный сектор

1 | 0:00.00 | 0:48.31 | 0 | 3630
2 | 0:48.31 | 1:39.50 | 3631 | 11105
3 | 2:28.06 | 0:54.14 | 11106 | 15169
4 | 3:22.20 | 1:25.04 | 15170 | 21548
5 | 4:47.24 | 1:01.66 | 21549 | 26189
6 | 5:49.15 | 0:59.53 | 26190 | 30667
7 | 6:48.68 | 1:40.13 | 30668 | 38180
8 | 8:29.06 | 1:13.44 | 38181 | 43699
9 | 9:42.50 | 1:31.31 | 43700 | 50555
10 | 11:14.06 | 1:56.25 | 50556 | 59280
11 | 13:10.31 | 0:44.30 | 59281 | 62610
12 | 13:54.61 | 1:07.30 | 62611 | 67665
13 | 15:02.16 | 1:05.07 | 67666 | 72547
14 | 16:07.23 | 1:12.47 | 72548 | 77994
15 | 17:19.70 | 3:31.42 | 77995 | 93861
16 | 20:51.37 | 0:39.44 | 93862 | 96830
17 | 21:31.06 | 1:02.56 | 96831 | 101536
18 | 22:33.62 | 1:09.43 | 101537 | 106754
19 | 23:43.30 | 1:40.21 | 106755 | 114275
20 | 25:23.51 | 0:59.29 | 114276 | 118729
21 | 26:23.05 | 1:49.27 | 118730 | 126931
22 | 28:12.32 | 1:10.60 | 126932 | 132241
23 | 29:23.17 | 0:43.29 | 132242 | 135495
24 | 30:06.46 | 0:58.54 | 135496 | 139899
25 | 31:05.25 | 2:34.12 | 139900 | 151461
26 | 33:39.37 | 0:53.55 | 151462 | 155491
27 | 34:33.17 | 1:29.63 | 155492 | 162229
28 | 36:03.05 | 1:04.74 | 162230 | 167103
29 | 37:08.04 | 1:12.22 | 167104 | 172525
30 | 38:20.26 | 1:11.41 | 172526 | 177891
31 | 39:31.67 | 1:57.72 | 177892 | 186738
32 | 41:29.64 | 4:30.38 | 186739 | 207026
33 | 46:00.27 | 3:01.50 | 207027 | 220651
34 | 49:02.02 | 4:17.73 | 220652 | 239999
35 | 53:20.00 | 2:54.38 | 240000 | 253087
36 | 56:14.38 | 2:56.09 | 253088 | 266296
37 | 59:10.47 | 2:23.19 | 266297 | 277040
38 | 61:33.66 | 3:44.36 | 277041 | 293876
39 | 65:18.27 | 2:16.21 | 293877 | 304097
40 | 67:34.48 | 4:01.17 | 304098 | 322189

Характеристики диапазона извлечения и сообщения об о?ибках

Выбранный диапазон ?мя файла O:\!Rips\Beethoven - Diabelli-Variationen (Disc 2).wav Пиковый уровень 75.4 %
Скорость извлечения 2.2 X
Качество диапазона 100.0 %
CRC теста F4C4D161
CRC копии F4C4D161
Копирование... OK

О?ибок не произо?ло


AccurateRip: сводка

Трек 1 отсутствует в базе данных
Трек 2 отсутствует в базе данных
Трек 3 отсутствует в базе данных
Трек 4 отсутствует в базе данных
Трек 5 отсутствует в базе данных
Трек 6 отсутствует в базе данных
Трек 7 отсутствует в базе данных
Трек 8 отсутствует в базе данных
Трек 9 отсутствует в базе данных
Трек 10 отсутствует в базе данных
Трек 11 отсутствует в базе данных
Трек 12 отсутствует в базе данных
Трек 13 отсутствует в базе данных
Трек 14 отсутствует в базе данных
Трек 15 отсутствует в базе данных
Трек 16 отсутствует в базе данных
Трек 17 отсутствует в базе данных
Трек 18 отсутствует в базе данных
Трек 19 отсутствует в базе данных
Трек 20 отсутствует в базе данных
Трек 21 отсутствует в базе данных
Трек 22 отсутствует в базе данных
Трек 23 отсутствует в базе данных
Трек 24 отсутствует в базе данных
Трек 25 отсутствует в базе данных
Трек 26 отсутствует в базе данных
Трек 27 отсутствует в базе данных
Трек 28 отсутствует в базе данных
Трек 29 отсутствует в базе данных
Трек 30 отсутствует в базе данных
Трек 31 отсутствует в базе данных
Трек 32 отсутствует в базе данных
Трек 33 отсутствует в базе данных
Трек 34 отсутствует в базе данных
Трек 35 отсутствует в базе данных
Трек 36 отсутствует в базе данных
Трек 37 отсутствует в базе данных
Трек 38 отсутствует в базе данных
Трек 39 отсутствует в базе данных
Трек 40 отсутствует в базе данных

Ни одного трека нет в базе AccurateRip

Конец отчёта

==== Контрольная сумма отчёта AE73BD23D59FF27F5EDC1D67647DCA106E71354A3DC3317F96F468A57A444CD3 ====

foobar2000 1.2 / Dynamic Range Meter 1.1.1
log date: 2015-10-22 17:56:33

Analyzed: Andras Schiff / Beethoven - Diabelli-Variationen (Disc 2)

DR Peak RMS Duration Track

DR13 -5.84 dB -22.74 dB 0:48 01-Diabelli-Variationen op. 120 (1819/23): Thema. Vivace
DR14 -5.09 dB -21.27 dB 1:40 02-Var. I - Alla marcia maestoso
DR12 -18.95 dB -33.93 dB 0:54 03-Var. II - Poco allegro
DR13 -13.32 dB -30.30 dB 1:25 04-Var. III - L'istesso tempo
DR13 -3.46 dB -23.60 dB 1:02 05-Var. IV - Un poco piu vivace
DR13 -3.00 dB -21.41 dB 1:00 06-Var. V - Allegro vivace
DR13 -5.55 dB -22.84 dB 1:40 07-Var. VI - Allegro ma non troppo e serioso
DR12 -7.20 dB -21.93 dB 1:14 08-Var. VII - Un poco piu allegro
DR12 -14.26 dB -29.77 dB 1:31 09-Var. VIII - Poco vivace
DR16 -2.69 dB -23.34 dB 1:56 10-Var. IX - Allegro pesante e risoluto
DR13 -3.51 dB -24.26 dB 0:44 11-Var. X - Presto
DR12 -14.13 dB -30.69 dB 1:07 12-Var. XI - Allegretto
DR11 -11.49 dB -28.20 dB 1:05 13-Var. XII - Un poco piu moto
DR14 -2.86 dB -23.09 dB 1:13 14-Var. XIII - Vivace
DR16 -3.31 dB -25.79 dB 3:32 15-Var. XIV - Grave e maestoso
DR13 -12.71 dB -29.50 dB 0:40 16-Var. XV - Presto scherzando
DR11 -6.35 dB -19.87 dB 1:03 17-Var. XVI - Allegro
DR13 -5.44 dB -21.96 dB 1:10 18-Var. XVII
DR13 -11.42 dB -31.14 dB 1:40 19-Var. XVIII - Poco moderato
DR12 -5.70 dB -22.32 dB 0:59 20-Var. XIX - Presto
DR15 -18.31 dB -38.35 dB 1:49 21-Var. XX - Andante
DR11 -6.32 dB -21.50 dB 1:11 22-Var. XXI - Allegro con brio
DR15 -5.13 dB -24.28 dB 0:43 23-Var. XXII - Allegro molto (alla 'Notte e giorno faticar' di Mozart)
DR15 -2.44 dB -20.65 dB 0:59 24-Var. XXIII - Allegro assai
DR12 -16.84 dB -33.21 dB 2:34 25-Var. XXIV - Fughetta. Andante
DR13 -7.51 dB -24.90 dB 0:54 26-Var. XXV - Allegro
DR13 -11.86 dB -30.01 dB 1:30 27-Var. XXVI
DR15 -5.06 dB -22.82 dB 1:05 28-Var. XXVII - Vivace
DR15 -3.49 dB -21.18 dB 1:12 29-Var. XXVIII - Allegro
DR13 -14.65 dB -34.23 dB 1:12 30-Var. XXIX - Adagio ma non troppo
DR13 -18.84 dB -35.54 dB 1:58 31-Var. XXX - Andante, sempre cantabile
DR14 -11.91 dB -31.08 dB 4:31 32-Var. XXXI - Largo molto, espressivo
DR13 -4.71 dB -21.57 dB 3:02 33-Var. XXXII - Fuga. Allegro - Poco adagio
DR14 -4.15 dB -29.73 dB 4:18 34-Var. XXXIII - Tempo di Menuetto moderato
DR13 -14.57 dB -32.20 dB 2:55 35-Sechs Bagatellen op. 126 (1823/24): I. Andante con moto cantabile e compiacevole
DR13 -7.34 dB -25.39 dB 2:56 36-II. Allegro
DR12 -12.52 dB -30.42 dB 2:23 37-III. Andante cantabile e grazioso
DR14 -4.08 dB -24.51 dB 3:44 38-IV. Presto
DR14 -13.70 dB -31.91 dB 2:16 39-V. Quasi Allegretto
DR18 -3.91 dB -28.91 dB 4:01 40-VI. Presto - Andante amabile e con moto

Number of tracks: 40
Official DR value: DR13

Samplerate: 44100 Hz
Channels: 2
Bits per sample: 16
Bitrate: 364 kbps
Codec: FLAC

http://i60.fastpic.ru/big/2015/1023/c6/601475c5c7ffc73765f4bcc7cc6da5c6.jpg

http://i60.fastpic.ru/big/2015/1023/2a/ba1e1d6870d0b53d5bcc08b372746b2a.jpg

All thanks to original releaser - jebiawio
Password: designol

DOWNLOAD LINKS:
Buy Premium To Support Me & Get Resumable Support & Max Speed


Links are Interchangeable - No Password - Single Extraction

Andras Schiff - Beethoven: Piano Sonata No. 32 op. 111, Diabelli-Variationen op. 120, Sechs Bagatellen op. 126 (2013) 2CD Fast Download



 
 
 
Dear visitor, you went to the site as an unregistered user. We encourage you to register or enter the site under your name.
 
   
 
 (Votes #: 0)