2013Zone For Latest Downloads

 
     
 
Legal Downloads » Music » Lou Donaldson - Alligator Bogaloo (1967) {2014 Japan SHM-CD Blue Note 24-192 Remaster} [re-up]
Menu
Home Applications
Games Movies
Music TV Shows
Torrents Graphics

Sitemap

RSS
 
Advanced Search
Last News
Site Info
Top Contributors:
  1    supper88 32766
  2    admin 32711
  3    Whisky 10080
  4    Shark_ 8911
  5    creativelivenew 8706
  6    whathesupa 2799
  7    candymypost 840
  8    hvnteam 629
  9    vuong87 3


Articles:
  This Hour: 0
  Today: 0
  This Month: 0
  All Time: 515501


Torrents:
  Today: 0
  Yesterday: 0
  All Time: 156676


Membership:
  Registered Today :0
  This Hour:0
  This Month:0
  Total:14
  Banned:1

{online}
{inform_torrent}
Friend:
Full Download Scripts
Torrent Download
Trend
Trend

Search In Site

Music : Lou Donaldson - Alligator Bogaloo (1967) {2014 Japan SHM-CD Blue Note 24-192 Remaster} [re-up]
 

http://i59.fastpic.ru/big/2015/1023/74/53d76daa897e8ec6b102eba7bec9b874.jpg
Lou Donaldson - Alligator Bogaloo (1967) {2014 Japan SHM-CD Blue Note 24-192 Remaster}
EAC rip (secure mode) | FLAC (tracks)+CUE+LOG -> 217 Mb | MP3 @320 -> 85 Mb
Full Artwork @ 600 dpi (png) -> 240 Mb | 5% repair rar | 24-bit 192 kHz remaster
© 2014 Universal Japan / Blue Note | BN 75th The Masterworks | UCCQ-5074
Jazz / Soul Jazz / Saxophone

"Features SHM-CD format and the latest 24bit 192kHz remastering. Alligator Bogaloo is one example of Lou Donaldson's successful combinations of hard bop and soul-jazz. Of the six tunes, three are Donaldson originals, including the title hit. The excellent band, consisting of Melvin Lastin, Sr. on cornet, George Benson on guitar, Lonnie Smith on organ, and Leo Morris on drums, mixes laid-back vamps beneath driving hard bop charts. As the '60s turned into the '70s, Donaldson began shaving off hard bop invention for a more radio-friendly and 45 rpm length, leaving soulful -- yet monotonous -- vamping. At that point, Donaldson's material suffered from a lack of originality. That's not the case on Alligator Bogaloo."

http://i57.fastpic.ru/big/2015/1023/5c/d273c72ebba97ee4e58f5905fa9f215c.jpg


Personnel:
Lou Donaldson - alto sax
Melvin Lastie - cornet
Lonnie Smith - organ
George Benson - guitar
Leo Morris (Idris Muhammad) - drums

http://i33.fastpic.ru/big/2015/1023/89/9885c2eb72dc5f86c3d0b22511455e89.jpg


tracklist:
01 - Alligator Bogaloo
02 - One Cylinder
03 - The Thang
04 - Aw Shucks!
05 - Rev. Moses
06 - I Want A Little Girl

Exact Audio Copy V1.0 beta 4 from 7. December 2014

EAC extraction logfile from 8. April 2015, 19:34

Lou Donaldson / Alligator Bogaloo

Used drive : TSSTcorpCDDVDW SE-208DB Adapter: 1 ID: 1

Read mode : Secure
Utilize accurate stream : Yes
Defeat audio cache : Yes
Make use of C2 pointers : No

Read offset correction

: 6
Overread into Lead-In and Lead-Out : No
Fill up missing offset samples with silence : Yes
Delete leading and trailing silent blocks : No
Null samples used in CRC calculations : Yes
Used interface
: Native Win32 interface for Win NT & 2000
Gap handling
: Appended to previous track

Used output format : User Defined Encoder
Selected bitrate : 1024 kBit/s
Quality : High
Add ID3 tag : No
Command line compressor : C:\Program Files (x86)\FLAC Frontend\tools\flac.exe
Additional command line options : -8 -V -T "ARTIST=%artist%" -T "TITLE=%title%" -T "ALBUM=%albumtitle%" -T "DATE=%year%" -T "TRACKNUMBER=%tracknr%" -T "TOTALTRACKS=%numtracks%" -T "GENRE=%genre%" -T "ALBUMARTIST=%albumartist%" -T "ALBUM ARTIST=%albumartist%" -T "COMMENT=EAC Secure Mode, Test & Copy, AccurateRip, FLAC -8" %source%

TOC of the extracted CD Track | Start | Length | Start sector | End sector
--1 | 0:00.00 | 6:56.46 | 0 | 31245 2 | 6:56.46 | 6:48.54 | 31246 | 61899 3 | 13:45.25 | 3:35.50 | 61900 | 78074 4 | 17:21.00 | 7:22.74 | 78075 | 111298 5 | 24:43.74 | 6:26.73 | 111299 | 140321 6 | 31:10.72 | 4:29.11 | 140322 | 160507

Track 1 Filename D:\_EAC\Lou Donaldson - Alligator Bogaloo (1967) [FLAC] {2014 Japan SHM-CD Blue Note 24-192 Remaster}\01 - Alligator Bogaloo.wav Pre-gap length 0:00:02.00 Peak level 98.5 %
Extraction speed 1.1 X
Track quality 100.0 %
Test CRC 724DE4ED
Copy CRC 724DE4ED
Track not present in AccurateRip database
Copy OK

Track 2 Filename D:\_EAC\Lou Donaldson - Alligator Bogaloo (1967) [FLAC] {2014 Japan SHM-CD Blue Note 24-192 Remaster}\02 - One Cylinder.wav Pre-gap length 0:00:02.28 Peak level 98.2 %
Extraction speed 1.2 X
Track quality 100.0 %
Test CRC EACBAE6F
Copy CRC EACBAE6F
Track not present in AccurateRip database
Copy OK

Track 3 Filename D:\_EAC\Lou Donaldson - Alligator Bogaloo (1967) [FLAC] {2014 Japan SHM-CD Blue Note 24-192 Remaster}\03 - The Thang.wav Pre-gap length 0:00:02.28 Peak level 99.2 %
Extraction speed 1.2 X
Track quality 100.0 %
Test CRC 33058A91
Copy CRC 33058A91
Track not present in AccurateRip database
Copy OK

Track 4 Filename D:\_EAC\Lou Donaldson - Alligator Bogaloo (1967) [FLAC] {2014 Japan SHM-CD Blue Note 24-192 Remaster}\04 - Aw Shucks!.wav Pre-gap length 0:00:02.43 Peak level 99.0 %
Extraction speed 1.5 X
Track quality 100.0 %
Test CRC D1FECDE0
Copy CRC D1FECDE0
Track not present in AccurateRip database
Copy OK

Track 5 Filename D:\_EAC\Lou Donaldson - Alligator Bogaloo (1967) [FLAC] {2014 Japan SHM-CD Blue Note 24-192 Remaster}\05 - Rev. Moses.wav Pre-gap length 0:00:02.29 Peak level 98.7 %
Extraction speed 1.6 X
Track quality 100.0 %
Test CRC F9E49144
Copy CRC F9E49144
Track not present in AccurateRip database
Copy OK

Track 6 Filename D:\_EAC\Lou Donaldson - Alligator Bogaloo (1967) [FLAC] {2014 Japan SHM-CD Blue Note 24-192 Remaster}\06 - I Want A Little Girl.wav Pre-gap length 0:00:02.28 Peak level 96.9 %
Extraction speed 1.6 X
Track quality 100.0 %
Test CRC AB12C032
Copy CRC AB12C032
Track not present in AccurateRip database
Copy OK

None of the tracks are present in the AccurateRip database

No errors occurred

End of status report

==== Log checksum 88AB0997071A8DC0D45097E8CFBAD505AE8BA345147C08D40854086A50580C3D ====

http://i59.fastpic.ru/big/2015/1023/59/5cbff177ddd29f0c2726e18faa440459.jpg

http://i48.fastpic.ru/big/2015/1023/de/76c83e296ff328c8f2f1c1e33f9562de.jpg

DOWNLOAD LINKS:
Buy Premium To Support Me & Get Resumable Support & Max Speed


Links are Interchangeable - No Password - Single Extraction

Lou Donaldson - Alligator Bogaloo (1967) {2014 Japan SHM-CD Blue Note 24-192 Remaster} [re-up] Fast Download



 
 
 
Dear visitor, you went to the site as an unregistered user. We encourage you to register or enter the site under your name.
 
   
 
 (Votes #: 0)