2013Zone For Latest Downloads

 
     
 
Legal Downloads » Music » Pallas - wearewhoweare (2014)
Menu
Home Applications
Games Movies
Music TV Shows
Torrents Graphics

Sitemap

RSS
 
Advanced Search
Last News
Site Info
Top Contributors:
  1    supper88 32766
  2    admin 32711
  3    Whisky 10080
  4    Shark_ 8911
  5    creativelivenew 8706
  6    whathesupa 2799
  7    candymypost 840
  8    hvnteam 629
  9    vuong87 3


Articles:
  This Hour: 0
  Today: 0
  This Month: 0
  All Time: 515501


Torrents:
  Today: 0
  Yesterday: 0
  All Time: 156676


Membership:
  Registered Today :0
  This Hour:0
  This Month:0
  Total:14
  Banned:1

{online}
{inform_torrent}
Friend:
Full Download Scripts
Torrent Download
Trend
Trend

Search In Site

Music : Pallas - wearewhoweare (2014)
 
http://i59.fastpic.ru/big/2015/1022/c8/5a27093ad652e72a85e845fb33cbb6c8.jpg

Pallas - wearewhoweare (2014)
EAC Rip | FLAC (Img) + Cue + Log ~ 338 Mb | MP3 CBR320 ~ 131 Mb
Scans (JPG, 300 dpi) ~ 50 Mb | RAR 5% Recovery
Neo Progressive Rock | Self-release

"Pallas are a progressive rock band formed in Aberdeen, Scotland (1980) under the original name Pallas Athene. They were one of the bands at the vanguard of what was termed neo-progressive during progressive rock's second-wave revival in the early 1980s, along with bands like Marillion, IQ, Twelfth Night, Pendragon, Quasar and Solstice. Wearewhoweare is their seventh studio album."


Track List:

01. Shadow Of The Sun [07:40]
02. New Life [04:52]
03. Harvest Moon [07:20]
04. And I Wonder Why [07:05]
05. Dominion [09:10]
06. Wake Up Call [06:34]
07. In Cold Blood [03:53]
08. Winter Is Coming [08:00]

Line-up / Musicians:

Paul Mackie - vocals
Graeme Murray - bass, 12-string, Taurus pedals, vocals
Niall Mathewson - guitars
Ronnie Brown - keyboards, vocals
Colin Fraser - drums, vocals

Exact Audio Copy V1.1 from 23. June 2015

EAC extraction logfile from 19. October 2015, 19:53

Pallas / wearewhoweare

Used drive : TEAC CD-W516EB Adapter: 1 ID: 1

Read mode : Secure
Utilize accurate stream : Yes
Defeat audio cache : Yes
Make use of C2 pointers : No

Read offset correction

: 685
Overread into Lead-In and Lead-Out : No
Fill up missing offset samples with silence : Yes
Delete leading and trailing silent blocks : No
Null samples used in CRC calculations : Yes
Used interface
: Native Win32 interface for Win NT & 2000

Used output format : User Defined Encoder
Selected bitrate : 1024 kBit/s
Quality : High
Add ID3 tag : Yes
Command line compressor : C:\Program Files (x86)\FLAC_1.3.1\win64\flac.exe
Additional command line options : -6 -V -T "ARTIST=%artist%" -T "TITLE=%title%" -T "ALBUM=%albumtitle%" -T "DATE=%year%" -T "TRACKNUMBER=%tracknr%" -T "GENRE=%genre%" -T "COMMENT=ripped by wurensh for rutracker.org" %source% -o %dest%

TOC of the extracted CD Track | Start | Length | Start sector | End sector
--1 | 0:00.00 | 7:39.33 | 0 | 34457 2 | 7:39.33 | 4:51.22 | 34458 | 56304 3 | 12:30.55 | 7:19.08 | 56305 | 89237 4 | 19:49.63 | 7:04.37 | 89238 | 121074 5 | 26:54.25 | 9:09.33 | 121075 | 162282 6 | 36:03.58 | 6:33.20 | 162283 | 191777 7 | 42:37.03 | 3:52.26 | 191778 | 209203 8 | 46:29.29 | 7:59.35 | 209204 | 245163

Range status and errors

Selected range Filename Y:\EAC\wurensh\Pallas\Pallas - wearewhoweare.wav Peak level 98.8 %
Extraction speed 7.2 X
Range quality 99.9 %
Test CRC E0D37D7E
Copy CRC E0D37D7E
Copy OK

No errors occurred


AccurateRip summary

Track 1 accurately ripped (confidence 5) [50B6444B] (AR v2)
Track 2 accurately ripped (confidence 5) [3459F8F7] (AR v2)
Track 3 accurately ripped (confidence 5) [E3E21170] (AR v2)
Track 4 accurately ripped (confidence 5) [E671679E] (AR v2)
Track 5 accurately ripped (confidence 5) [74D10DD5] (AR v2)
Track 6 accurately ripped (confidence 5) [3A866AB1] (AR v2)
Track 7 accurately ripped (confidence 5) [71512966] (AR v2)
Track 8 accurately ripped (confidence 5) 6731881 (AR v2)

All tracks accurately ripped

End of status report

- CUETools DB Plugin V2.1.6

[CTDB TOCID: 87unvIgRvvqGawKNQn1t2LWo8Go-] found
Submit result: 87unvIgRvvqGawKNQn1t2LWo8Go- has been confirmed
Track | CTDB Status
1 | (6/6) Accurately ripped
2 | (6/6) Accurately ripped
3 | (6/6) Accurately ripped
4 | (6/6) Accurately ripped
5 | (6/6) Accurately ripped
6 | (6/6) Accurately ripped
7 | (6/6) Accurately ripped
8 | (6/6) Accurately ripped

==== Log checksum 9CB6ED21D67F4588616E0DB9A9BD277E243B50D46F767B222DEEA609CF0332FE ====

foobar2000 1.2.6 / Dynamic Range Meter 1.1.1
log date: 2015-10-21 03:15:52

Analyzed: Pallas / wearewhoweare

DR Peak RMS Duration Track

DR8 -0.10 dB -10.46 dB 7:39 01-Shadow Of The Sun
DR8 -0.10 dB -12.07 dB 4:51 02-New Life
DR9 -0.10 dB -13.39 dB 7:19 03-Harvest Moon
DR10 -0.10 dB -12.10 dB 7:04 04-And I Wonder Why
DR9 -0.10 dB -11.33 dB 9:09 05-Dominion
DR11 -0.10 dB -15.42 dB 6:33 06-Wake Up Call
DR13 -0.10 dB -17.63 dB 3:52 07-In Cold Blood
DR10 -0.10 dB -13.05 dB 7:59 08-Winter Is Coming

Number of tracks: 8
Official DR value: DR10

Samplerate: 44100 Hz
Channels: 2
Bits per sample: 16
Bitrate: 825 kbps
Codec: FLAC

[CUETools log; Date: 21.10.2015 3:15:48; Version: 2.1.5]
[CTDB TOCID: 87unvIgRvvqGawKNQn1t2LWo8Go-] found.
Track | CTDB Status
1 | (7/7) Accurately ripped
2 | (7/7) Accurately ripped
3 | (7/7) Accurately ripped
4 | (7/7) Accurately ripped
5 | (7/7) Accurately ripped
6 | (7/7) Accurately ripped
7 | (7/7) Accurately ripped
8 | (7/7) Accurately ripped
[AccurateRip ID: 0010ee01-0070dc3b-6b0cc408] found.
Track [ CRC | V2 ] Status
01 [a3243e3d|50b6444b] (0+5/5) Accurately ripped
02 [d78f052b|3459f8f7] (0+5/5) Accurately ripped
03 [4de80513|e3e21170] (0+5/5) Accurately ripped
04 [ec889906|e671679e] (0+5/5) Accurately ripped
05 [20fd96e5|74d10dd5] (0+5/5) Accurately ripped
06 [edad95e7|3a866ab1] (0+5/5) Accurately ripped
07 [8d549f0d|71512966] (0+5/5) Accurately ripped
08 [d387d909|b6731881] (0+5/5) Accurately ripped

Track Peak [ CRC32 ] [W/O NULL] [ LOG ]
-- 98,8 [E0D37D7E] [FBD13BD9] CRC32
01 98,8 [916CA831] [8433ABA5]
02 98,8 [22866271] [C3187840]
03 98,8 [57F478FD] [C8C55A14]
04 98,8 [2B10A67B] [8D8B6F8A]
05 98,8 EFA73D9 [A35EF13D]
06 98,8 [A163788E] [AC2E99E7]
07 98,8 [C98CB930] [DAF4711C]
08 98,8 [CC44E083] [CC7DECEB]

http://i66.fastpic.ru/big/2015/1022/11/bc9e5f11d99e57835f7fd8b0b466df11.jpg

http://i67.fastpic.ru/big/2015/1022/1f/e78986139c9ff1001ce064f8d4db751f.jpg


DOWNLOAD LINKS:
Buy Premium To Support Me & Get Resumable Support & Max Speed


Links are Interchangeable - No Password - Single Extraction

Pallas - wearewhoweare (2014) Fast Download



 
 
 
Dear visitor, you went to the site as an unregistered user. We encourage you to register or enter the site under your name.
 
   
 
 (Votes #: 0)