2013Zone For Latest Downloads

 
     
 
Legal Downloads » Music » Loudness - Thunder in the East (1985/2003)
Menu
Home Applications
Games Movies
Music TV Shows
Torrents Graphics

Sitemap

RSS
 
Advanced Search
Last News
Site Info
Top Contributors:
  1    supper88 32766
  2    admin 32711
  3    Whisky 10080
  4    Shark_ 8911
  5    creativelivenew 8706
  6    whathesupa 2799
  7    candymypost 840
  8    hvnteam 629
  9    vuong87 3


Articles:
  This Hour: 0
  Today: 0
  This Month: 0
  All Time: 515501


Torrents:
  Today: 0
  Yesterday: 0
  All Time: 156676


Membership:
  Registered Today :0
  This Hour:0
  This Month:0
  Total:14
  Banned:1

{online}
{inform_torrent}
Friend:
Full Download Scripts
Torrent Download
Trend
Trend

Search In Site

Music : Loudness - Thunder in the East (1985/2003)
 
http://i57.fastpic.ru/big/2015/1023/74/f21ec8d1958c49ce40722a53fc6a4174.jpg

Loudness - Thunder in the East (1985/2003)
EAC Rip | FLAC (Img) + Cue + Log ~ 349 Mb | MP3 CBR320 ~ 122 Mb
Scans Included (JPG, 600 dpi) | RAR 5% Recovery
Heavy Metal | Wounded Bird Records #WOU 246

"Thunder in the East is Japanese heavy metal band Loudness' fifth studio album and the first released by a major American label, after the contract signed with Atco Records, a subsidiary of Warner Music Group. All the songs are in English. It is the first Loudness album produced by Max Norman, who also produced the album Lightning Strikes in 1986 and the album Soldier of Fortune in 1989. Thunder in the East features the single "Crazy Nights", Loudness' biggest hit in America, and the power ballad "Never Change Your Mind". This album was the first of a Japanese metal band to enter in the Billboard 200 US chart, where it remained for 23 weeks, peaking at No. 74..."

Wiki | Discogs | All Music
***************

http://i48.fastpic.ru/big/2015/1023/4d/d9a3de04346d6c12468c95b99c56ac4d.jpg

Track List:

01. Crazy Nights [04:06]
02. Like Hell [03:47]
03. Heavy Chains [04:20]
04. Get Away [03:56]
05. We Could Be Together [04:53]
06. Run For Your Life [03:57]
07. Clockwork Toy [03:58]
08. No Way Out [04:04]
09. The Lines Are Down [04:51]
10. Never Change Your Mind [04:12]

Exact Audio Copy V1.0 beta 1 from 15. November 2010

EAC extraction logfile from 21. October 2015, 22:14

Loudness / Thunder In The East

Used drive : MATSHITADVD-RAM UJ8A0AS Adapter: 0 ID: 1

Read mode : Secure
Utilize accurate stream : Yes
Defeat audio cache : Yes
Make use of C2 pointers : No

Read offset correction

: 102
Overread into Lead-In and Lead-Out : No
Fill up missing offset samples with silence : Yes
Delete leading and trailing silent blocks : No
Null samples used in CRC calculations : Yes
Used interface
: Native Win32 interface for Win NT & 2000

Used output format : Internal WAV Routines
Sample format : 44.100 Hz; 16 Bit; Stereo

TOC of the extracted CD Track | Start | Length | Start sector | End sector
--1 | 0:00.00 | 4:05.22 | 0 | 18396 2 | 4:05.22 | 3:46.68 | 18397 | 35414 3 | 7:52.15 | 4:19.27 | 35415 | 54866 4 | 12:11.42 | 3:55.13 | 54867 | 72504 5 | 16:06.55 | 4:52.58 | 72505 | 94462 6 | 20:59.38 | 3:56.54 | 94463 | 112216 7 | 24:56.17 | 3:57.27 | 112217 | 130018 8 | 28:53.44 | 4:03.03 | 130019 | 148246 9 | 32:56.47 | 4:50.63 | 148247 | 170059
10 | 37:47.35 | 4:11.15 | 170060 | 188899

Range status and errors

Selected range Filename C:\Users\Alex\Music\Alexharvey\Loudness - Thunder In The East.wav Peak level 92.0 %
Extraction speed 0.1 X
Range quality 100.0 %
Test CRC 3285C5ED
Copy CRC 3285C5ED
Copy OK

No errors occurred


AccurateRip summary

Track 1 accurately ripped (confidence 3) [EE748E70]
Track 2 accurately ripped (confidence 3) [5D87B905]
Track 3 accurately ripped (confidence 3) [5B15128C]
Track 4 accurately ripped (confidence 3) [CE8E6209]
Track 5 accurately ripped (confidence 3) [617D7136]
Track 6 accurately ripped (confidence 3) [03289300]
Track 7 accurately ripped (confidence 3) [1439145F]
Track 8 accurately ripped (confidence 3) [9C82EA82]
Track 9 accurately ripped (confidence 3) C7C9FCF
Track 10 accurately ripped (confidence 3) [71F8B3A7]

All tracks accurately ripped

End of status report

==== Log checksum 3648B6BBB56F9DA500F89E205011019D7585EFBDA219DF336916139EA1D90BA4 ====

foobar2000 1.2.6 / Dynamic Range Meter 1.1.1
log date: 2015-10-22 23:18:22

Analyzed: Loudness / Thunder In The East

DR Peak RMS Duration Track

DR6 -0.72 dB -8.57 dB 4:05 01-Crazy Nights
DR7 -0.72 dB -8.64 dB 3:47 02-Like Hell
DR6 -0.72 dB -8.76 dB 4:19 03-Heavy Chains
DR5 -0.72 dB -7.15 dB 3:55 04-Get Away
DR7 -0.72 dB -9.25 dB 4:53 05-We Could Be Together
DR7 -0.72 dB -10.18 dB 3:57 06-Run For Your Life
DR7 -0.72 dB -8.57 dB 3:57 07-Clockwork Toy
DR7 -0.72 dB -8.26 dB 4:03 08-No Way Out
DR6 -0.72 dB -8.43 dB 4:51 09-The Lines Are Down
DR7 -0.72 dB -11.01 dB 4:11 10-Never Change Your Mind

Number of tracks: 10
Official DR value: DR7

Samplerate: 44100 Hz
Channels: 2
Bits per sample: 16
Bitrate: 1039 kbps
Codec: FLAC

[CUETools log; Date: 22.10.2015 23:18:13; Version: 2.1.5]
[CTDB TOCID: aLf4qkQ1Jpq1K4EeOAMBeQRGdTY-] found.
Track | CTDB Status
1 | ( 9/10) Accurately ripped
2 | ( 9/10) Accurately ripped
3 | ( 9/10) Accurately ripped
4 | ( 9/10) Accurately ripped
5 | ( 9/10) Accurately ripped
6 | ( 9/10) Accurately ripped
7 | ( 9/10) Accurately ripped
8 | ( 9/10) Accurately ripped
9 | ( 9/10) Accurately ripped
10 | ( 9/10) Accurately ripped
[AccurateRip ID: 000fa442-007d953d-9e09d60a] found.
Track [ CRC | V2 ] Status
01 [ee748e70|b95ce044] (00+03/25) Accurately ripped
02 [5d87b905|e3328622] (00+03/26) Accurately ripped
03 [5b15128c|cc55e96f] (00+03/28) Accurately ripped
04 [ce8e6209|a7bb91e0] (00+03/26) Accurately ripped
05 [617d7136|66652cfd] (00+03/26) Accurately ripped
06 [03289300|cadbfa67] (00+03/26) Accurately ripped
07 [1439145f|28cbb4f6] (00+03/26) Accurately ripped
08 [9c82ea82|53ee1920] (00+03/27) Accurately ripped
09 c7c9fcf|26d2c232 (00+03/26) Accurately ripped
10 [71f8b3a7|7e0ef040] (00+03/26) Accurately ripped
Offsetted by 24:
01 [73fcd8ca] (02/25) Accurately ripped
02 [d5c38bab] (02/26) Accurately ripped
03 [f907dcd7] (02/28) Accurately ripped
04 [a9786966] (02/26) Accurately ripped
05 [c51ef276] (02/26) Accurately ripped
06 [75a89ff8] (02/26) Accurately ripped
07 [46662797] (02/26) Accurately ripped
08 [0e8a960a] (02/27) Accurately ripped
09 [74edb137] (02/26) Accurately ripped
10 [70a00c2f] (02/26) Accurately ripped
Offsetted by 42:
01 [d9236662] (11/25) Accurately ripped
02 [98713df1] (11/26) Accurately ripped
03 [fd74566c] (13/28) Accurately ripped
04 46f4a03 (11/26) Accurately ripped
05 [4fd81366] (11/26) Accurately ripped
06 [8b88a9b2] (11/26) Accurately ripped
07 [6c07f601] (11/26) Accurately ripped
08 [e41056b0] (12/27) Accurately ripped
09 [3f427e45] (11/26) Accurately ripped
10 [af9d8e95] (11/26) Accurately ripped

Track Peak [ CRC32 ] [W/O NULL] [ LOG ]
-- 92,0 [3285C5ED] [6608D728] CRC32
01 92,0 [FB432EE1] [7E433A65]
02 92,0 [2B1325DD] [561D9314]
03 92,0 [96450DDB] [85EBC0E4]
04 92,0 [E0D59167] [51345169]
05 92,0 [D4653D01] [85504B3E]
06 92,0 [2BC8A31B] [8F1F3B3A]
07 92,0 839E7B0 [A9B946DC]
08 92,0 [7964B57E] [E08FDC66]
09 92,0 [56A50945] C014B9D
10 92,0 [A9DB41FA] [18AEC744]

http://i48.fastpic.ru/big/2015/1023/30/49e0d3b0d87f0377a18bbbd1e3755b30.jpg


DOWNLOAD LINKS:
Buy Premium To Support Me & Get Resumable Support & Max Speed


Links are Interchangeable - No Password - Single Extraction

Loudness - Thunder in the East (1985/2003) Fast Download



 
 
 
Dear visitor, you went to the site as an unregistered user. We encourage you to register or enter the site under your name.
 
   
 
 (Votes #: 0)