2013Zone For Latest Downloads

 
     
 
Legal Downloads » Music » Gerald Albright - Live At Birdland West (1991)
Menu
Home Applications
Games Movies
Music TV Shows
Torrents Graphics

Sitemap

RSS
 
Advanced Search
Last News
Site Info
Top Contributors:
  1    supper88 32766
  2    admin 32725
  3    Whisky 10080
  4    Shark_ 8911
  5    creativelivenew 8706
  6    whathesupa 2799
  7    candymypost 840
  8    hvnteam 629
  9    vuong87 3


Articles:
  This Hour: 0
  Today: 0
  This Month: 2
  All Time: 515495


Torrents:
  Today: 0
  Yesterday: 0
  All Time: 156680


Membership:
  Registered Today :0
  This Hour:0
  This Month:0
  Total:14
  Banned:1

{online}
{inform_torrent}
Friend:
Full Download Scripts
Torrent Download
Trend
Trend

Search In Site

Music : Gerald Albright - Live At Birdland West (1991)
 
http://i74.fastpic.ru/big/2015/1026/0e/00332a7ff425ecb276d948e28e35910e.jpg

Gerald Albright - Live At Birdland West (1991)
EAC Rip | FLAC with CUE and log | scans | 470 mb
MP3 CBR 320kbps | RAR | 167 mb
Genre: jazz, smooth jazz, post bop

Live At Birdland West is an official 1991 live album by Gerald Albright. It was his 4th album for Atlantic Records.
"Virtually all of saxophonist Gerald Albright's previous recordings were in the pop/R&B field, making this mostly straight-ahead session a major surprise. Albright, alternating between alto and tenor, plays quite well throughout this set, which is highlighted by versions of "Impressions," "Georgia on My Mind," and "Limehouse Blues." Tenorman Kirk Whalum helps out on three tracks, and Eddie Harris makes a guest appearance on "Bubblehead McDaddy." This is easily Gerald Albright's most rewarding session to date."


http://i57.fastpic.ru/big/2015/1026/d1/2e3f9dde6dc41be163b4af69feebafd1.jpg

01. Impressions
02. Georgia On My Mind
03. Softly At Sunshine
04. Too Cool
05. 'C Jamm' Blues
#####
SONGS 1 THRU 5 RECORDED LIVE AT BIRDLAND WEST

SONGS 1 THRU 5 PERSONNEL:
Gerald Albright-alto and tenor saxophones
Patrick Moren-organ and synthesizers
Tony Dumas-electric and acoustic bass
Derek Nakamoto-strings
Onaje Allan Gumbs-acoustic piano, synthesizer
Land Richards-drums
###

06. Limehouse Blues
Gerald Albright-alto saxophone
Kirk Whalum-tenor saxophone
Joe Sample-acoustic piano
Harvey Mason-drums
Tony Dumas-bass

07. Melodius Thunk
Gerald Albright-alto saxophone, synthesizer
Kirk Whalum-tenor saxophone
Joe Sample-acoustic piano
Bobby Lyle-organ solo
Derek Nakamoto-strings, synthesizer
Harvey Mason-drums
Tony Dumas-acoustic bass

08. Bubblehead McDaddy
Gerald Albright-alto saxophone
Eddie Harris-tenor saxophone
Patrice Rushen-acoustic piano
Leon "Ndugu" Chancler-drums
Tony Dumas-acoustic bass
Oscar Brashear-trumpet (muted_
Derek Nakamoto-strings

09. Boss Of Nova
Gerald Albright-alto saxophone
Kirk Whalum-tenor saxophone
Joe Sample-acoustic piano
Harvey Mason-drums
Derek Nakamoto-strings, synthesizers
Tony Dumas-acoustic bass

10. My One And Only Love
Gerald Albright-tenor saxophone
Derek Nakamoto-strings
Will Boulware-acoustic piano
Ed Smith-drums
Tony Dumas-acoustic bass

Master of ceremonies: Al Williams

Produced by Gerald Albright for Bright Music, Inc.

Recording engineers: Craig Burbridge, "Rusty" Richards and Robert Seifert

House engineer at Birdland West: Anthony Jeffries
Mixing engineer: Craig Burbridge

Tracks 6-10 Recorded at Aire L.A. Studios, Le Mobile
Mixed at Aire L.A. Studios

http://i76.fastpic.ru/big/2015/1026/bb/bd940e6b98444bb378b7fdc9f003a1bb.jpg



EAC extraction logfile from 19. November 2006, 5:45 for CD
Gerald Albright / Live At Birdland West

Used drive : LITE-ON DVDRW SOHW-1633S Adapter: 0 ID: 0
Read mode : Secure with NO C2, accurate stream, disable cache
Read offset correction : 12
Overread into Lead-In and Lead-Out : No

Used output format : Internal WAV Routines 44.100 Hz; 16 Bit; Stereo

Other options :
Fill up missing offset samples with silence : Yes
Delete leading and trailing silent blocks : No
Installed external ASPI interface

Track 1
Filename D:\FLAC\Gerald Albright - Live At Birdland West (1991) [FLAC]\01 - Impressions.wav Pre-gap length 0:00:02.42 Peak level 94.6 %
Track quality 100.0 %
Test CRC 49F3D636
Copy CRC 49F3D636
Copy OK

Track 2
Filename D:\FLAC\Gerald Albright - Live At Birdland West (1991) [FLAC]\02 - Georgia On My Mind.wav Peak level 94.6 %
Track quality 100.0 %
Test CRC D01CFE4C
Copy CRC D01CFE4C
Copy OK

Track 3
Filename D:\FLAC\Gerald Albright - Live At Birdland West (1991) [FLAC]\03 - Softly At Sunshine.wav Peak level 100.0 %
Track quality 99.9 %
Test CRC BACAB9DB
Copy CRC BACAB9DB
Copy OK

Track 4
Filename D:\FLAC\Gerald Albright - Live At Birdland West (1991) [FLAC]\04 - Too Cool.wav Pre-gap length 0:00:00.13 Peak level 99.0 %
Track quality 100.0 %
Test CRC 14471905
Copy CRC 14471905
Copy OK

Track 5
Filename D:\FLAC\Gerald Albright - Live At Birdland West (1991) [FLAC]\05 - 'C Jamm' Blues.wav Peak level 94.6 %
Track quality 100.0 %
Test CRC DDD1DB1D
Copy CRC DDD1DB1D
Copy OK

Track 6
Filename D:\FLAC\Gerald Albright - Live At Birdland West (1991) [FLAC]\06 - Limehouse Blues.wav Pre-gap length 0:00:00.60 Peak level 100.0 %
Track quality 100.0 %
Test CRC 7FA3255B
Copy CRC 7FA3255B
Copy OK

Track 7
Filename D:\FLAC\Gerald Albright - Live At Birdland West (1991) [FLAC]\07 - Melodius Thunk.wav Pre-gap length 0:00:00.49 Peak level 100.0 %
Track quality 100.0 %
Test CRC 7D523F67
Copy CRC 7D523F67
Copy OK

Track 8
Filename D:\FLAC\Gerald Albright - Live At Birdland West (1991) [FLAC]\08 - Bubblehead McDaddy.wav Pre-gap length 0:00:00.73 Peak level 100.0 %
Track quality 100.0 %
Test CRC BD249343
Copy CRC BD249343
Copy OK

Track 9
Filename D:\FLAC\Gerald Albright - Live At Birdland West (1991) [FLAC]\09 - Boss Of Nova.wav Pre-gap length 0:00:02.00 Peak level 97.7 %
Track quality 100.0 %
Test CRC E481228D
Copy CRC E481228D
Copy OK

Track 10
Filename D:\FLAC\Gerald Albright - Live At Birdland West (1991) [FLAC]\10 - My One And Only Love.wav Pre-gap length 0:00:00.82 Peak level 100.0 %
Track quality 99.9 %
Test CRC 1B3EFF7D
Copy CRC 1B3EFF7D
Copy OK

No errors occured

End of status report
DOWNLOAD LINKS:
Buy Premium To Support Me & Get Resumable Support & Max Speed


Links are Interchangeable - No Password - Single Extraction

Gerald Albright - Live At Birdland West (1991) Fast Download



 
 
 
Dear visitor, you went to the site as an unregistered user. We encourage you to register or enter the site under your name.
 
   
 
 (Votes #: 0)