2013Zone For Latest Downloads

 
     
 
Legal Downloads » Music » Humble Grumble - 30 Years Kolinda (2005)
Menu
Home Applications
Games Movies
Music TV Shows
Torrents Graphics

Sitemap

RSS
 
Advanced Search
Last News
Site Info
Top Contributors:
  1    supper88 32766
  2    admin 32630
  3    Whisky 10080
  4    Shark_ 8911
  5    creativelivenew 8706
  6    whathesupa 2799
  7    candymypost 840
  8    hvnteam 629
  9    vuong87 3


Articles:
  This Hour: 0
  Today: 14
  This Month: 44
  All Time: 515735


Torrents:
  Today: 0
  Yesterday: 0
  All Time: 156682


Membership:
  Registered Today :0
  This Hour:0
  This Month:0
  Total:14
  Banned:1

{online}
{inform_torrent}
Friend:
We Recomend
Trend
Trend
onlinemovies

Search In Site

Music : Humble Grumble - 30 Years Kolinda (2005)
 
http://i73.fastpic.ru/big/2015/1106/15/08fe735af789d86696354f70b5cb1015.jpg

Humble Grumble - 30 Years Kolinda (2005)
EAC Rip | FLAC (Img) + Cue + Log ~ 257 Mb | MP3 CBR320 ~ 124 Mb
Scans Included (JPG, 600 dpi) | RAR 5% Recovery
Avant-Prog, Freak Folk | PAN Records #PAN095

"Crazed jazzy and avant-proggy Belgian ensemble Humble Grumble seem "Zappa-esque" in their meld of anything-goes music and sometimes outrageous, sometimes incongruously dark lyrics, but the roots of the band are on the somewhat folkier side. Hungarian singer/guitarist Gabor "Humble" Vörös wandered around Europe before settling in the Ghent, Belgium area in 1993. He participated in a number of musical projects, including a somewhat oddball folk-rock outfit named Dearest Companion, also featuring multi-instrumentalist Tom Theuns. Vörös (on guitar and vocals) and Theuns (on bass) formed Humble Grumble in 1996, and a quintet version of the group toured Switzerland and Germany and recorded a pair of demos that year, The Golden Pile and The Tom and Gabor Special..."


Track List:

01. En Vacogok Mar (I'm Shivering With Cold) [02:26]
02. Szamum (Sandstorm) [04:12]
03. Nem Szamit (Doesn't Count) [07:26]
04. Jatekos (Playful) [01:49]
05. Forgo ot (Turning Five) [05:24]
06. Tanc (Dance) [03:51]
07. Felek (I'm Scared) [04:41]
08. Napfordulo (Solstice) [05:58]
09. Rohanas (Rush) [04:29]

Exact Audio Copy V1.0 beta 3 from 29. August 2011

EAC extraction logfile from 19. March 2014, 19:00

Humble Grumble / 30 Years Kolinda

Used drive : PIONEER DVD-RW DVR-220RS Adapter: 0 ID: 0

Read mode : Secure
Utilize accurate stream : Yes
Defeat audio cache : Yes
Make use of C2 pointers : No

Read offset correction

: 6
Overread into Lead-In and Lead-Out : No
Fill up missing offset samples with silence : Yes
Delete leading and trailing silent blocks : No
Null samples used in CRC calculations : Yes
Used interface
: Native Win32 interface for Win NT & 2000

Used output format : User Defined Encoder
Selected bitrate : 128 kBit/s
Quality : High
Add ID3 tag : No
Command line compressor : C:\Program Files (x86)\Exact Audio Copy\Wavpack\wavpack.exe
Additional command line options : -hlm %source% %dest%

TOC of the extracted CD Track | Start | Length | Start sector | End sector
--1 | 0:00.00 | 2:25.08 | 0 | 10882 2 | 2:25.08 | 4:11.09 | 10883 | 29716 3 | 6:36.17 | 7:25.41 | 29717 | 63132 4 | 14:01.58 | 1:48.18 | 63133 | 71250 5 | 15:50.01 | 5:23.29 | 71251 | 95504 6 | 21:13.30 | 3:50.47 | 95505 | 112801 7 | 25:04.02 | 4:40.65 | 112802 | 133866 8 | 29:44.67 | 5:57.62 | 133867 | 160703 9 | 35:42.54 | 4:28.42 | 160704 | 180845

Range status and errors

Selected range Filename C:\NL+\CD58\Humble Grumble - 30 Years Kolinda.wav Peak level 92.5 %
Extraction speed 6.6 X
Range quality 99.9 %
Test CRC 714C2928
Copy CRC 714C2928
Copy OK

No errors occurred


AccurateRip summary

Track 1 accurately ripped (confidence 1) [4DBC401B] (AR v2)
Track 2 accurately ripped (confidence 1) [0F1233B7] (AR v2)
Track 3 accurately ripped (confidence 1) [7DF9DB86] (AR v2)
Track 4 accurately ripped (confidence 1) 7E5068F (AR v2)
Track 5 accurately ripped (confidence 1) [AD0966A2] (AR v2)
Track 6 accurately ripped (confidence 1) [37948A1F] (AR v2)
Track 7 accurately ripped (confidence 1) [8017EABC] (AR v2)
Track 8 accurately ripped (confidence 1) [D0C1D9D0] (AR v2)
Track 9 accurately ripped (confidence 1) [6C4C63D5] (AR v2)

All tracks accurately ripped

End of status report

- CUETools DB Plugin V2.1.3

[CTDB TOCID: a31xNUV9fYD1gJimEKu.88fwgwc-] found, Submit result: already submitted
[760571f0] (1/1) Accurately ripped

==== Log checksum 72C7E59F9844BA32003382F213B5D5DEAF72A995D44D50C41BA5250FABC51C05 ====

foobar2000 1.2.6 / Dynamic Range Meter 1.1.1
log date: 2015-06-25 10:59:18

Analyzed: Humble Grumble / 30 Years Kolinda

DR Peak RMS Duration Track

DR13 -1.28 dB -17.69 dB 2:25 01-En Vacogok Mar (I'm Shivering With Cold)
DR16 -0.72 dB -20.33 dB 4:11 02-Szamum (Sandstorm)
DR14 -2.38 dB -20.24 dB 7:26 03- Nem Szamit (Doesn't Count)
DR14 -0.70 dB -17.83 dB 1:48 04-Jatekos (Playful)
DR12 -0.67 dB -16.94 dB 5:23 05-Forgo ot (Turning Five)
DR12 -1.15 dB -16.03 dB 3:51 06-Tanc (Dance)
DR13 -1.73 dB -17.15 dB 4:41 07-Felek (I'm Scared)
DR12 -1.44 dB -18.16 dB 5:58 08-Napfordulo (Solstice)
DR14 -1.49 dB -17.71 dB 4:29 09-Rohanas (Rush)

Number of tracks: 9
Official DR value: DR13

Samplerate: 44100 Hz
Channels: 2
Bits per sample: 16
Bitrate: 759 kbps
Codec: FLAC

[CUETools log; Date: 25.06.2015 10:59:47; Version: 2.1.5]
[CTDB TOCID: a31xNUV9fYD1gJimEKu.88fwgwc-] found.
Track | CTDB Status
1 | (1/1) Accurately ripped
2 | (1/1) Accurately ripped
3 | (1/1) Accurately ripped
4 | (1/1) Accurately ripped
5 | (1/1) Accurately ripped
6 | (1/1) Accurately ripped
7 | (1/1) Accurately ripped
8 | (1/1) Accurately ripped
9 | (1/1) Accurately ripped
[AccurateRip ID: 000d1a54-0061c791-7d096b09] found.
Track [ CRC | V2 ] Status
01 [964ee02b|4dbc401b] (0+2/2) Accurately ripped
02 [9a4ec679|0f1233b7] (0+2/2) Accurately ripped
03 [1889b080|7df9db86] (0+2/2) Accurately ripped
04 [a8e34291|b7e5068f] (0+2/2) Accurately ripped
05 [d7e0ba3d|ad0966a2] (0+2/2) Accurately ripped
06 [75e2c9cf|37948a1f] (0+2/2) Accurately ripped
07 [fcd1c889|8017eabc] (0+2/2) Accurately ripped
08 [fffdfab2|d0c1d9d0] (0+2/2) Accurately ripped
09 [93f093e7|6c4c63d5] (0+2/2) Accurately ripped

Track Peak [ CRC32 ] [W/O NULL] [ LOG ]
-- 92,5 [714C2928] [2357330B] CRC32
01 86,3 [EF70657E] [436A8E36]
02 92,0 [E73B452A] [3D9B7212]
03 76,0 [11311135] [72586AD2]
04 92,2 [4B209F41] [AEC4C32F]
05 92,5 [023A2651] [261F3212]
06 87,5 [8CCCC5EF] [31BF4D99]
07 81,9 [E33D8F4C] [A4858BA2]
08 84,7 [EA398C33] [CA9620EC]
09 84,2 [27E3302F] [D8562C26]

http://i73.fastpic.ru/big/2015/1106/7a/c2a9903f7fc85f9aa3d0b29a29d9677a.jpg

http://i74.fastpic.ru/big/2015/1106/74/f20f35f4c7846a980428150fab3bc474.jpg


DOWNLOAD LINKS:
Buy Premium To Support Me & Get Resumable Support & Max Speed


Links are Interchangeable - No Password - Single Extraction

 
 
 
Dear visitor, you went to the site as an unregistered user. We encourage you to register or enter the site under your name.
 
   
 
 (Votes #: 0)