2013Zone For Latest Downloads

 
     
 
Legal Downloads » Music » The Young Gods - Live Sky Tour (1993)
Menu
Home Applications
Games Movies
Music TV Shows
Torrents Graphics

Sitemap

RSS
 
Advanced Search
Last News
Site Info
Top Contributors:
  1    supper88 32766
  2    admin 32683
  3    Whisky 10080
  4    Shark_ 8911
  5    creativelivenew 8706
  6    whathesupa 2799
  7    candymypost 840
  8    hvnteam 629
  9    vuong87 3


Articles:
  This Hour: 0
  Today: 0
  This Month: 52
  All Time: 515552


Torrents:
  Today: 0
  Yesterday: 0
  All Time: 156675


Membership:
  Registered Today :0
  This Hour:0
  This Month:0
  Total:14
  Banned:1

{online}
{inform_torrent}
Friend:
Nulled Script Download
Torrent Download
Trend
Trend
VPN_ad

Search In Site

Music : The Young Gods - Live Sky Tour (1993)
 
http://i65.fastpic.ru/big/2015/1106/4f/ad4416aa3fc64489706d66a5402dc54f.jpg

The Young Gods - Live Sky Tour (1993)
Electronic | 1cd | EAC Rip | Flac + Cue + Log | covers
Play It Again Sam, BIAS 241 CD | rel: 1993 | 385Mb

Part of the Gods' strong appeal -- their masterful ability to incorporate samples from all sources to create their songs, as well as their self-described "sound freak" tendencies in the studio -- would seem to preclude being equally as gripping live. The band has always consistently toured and performed, however, and one listen to this document of a 1992 tour date in Australia demonstrates that for all the technology, the Young Gods can still do the basic job of rocking the house and then some.
While some of the picture-perfect edge in the studio versions is understandably lost live, what is most immediately striking is realizing how keyboardist Comet and drummer Use Hiestand function in perfect tandem in performance; your ear hears what sounds like a series of guitarists all playing at once, but it's all down to Comet conjuring it out of the computer, and it's worth a lifetime's collection of hair metal shredders and thrash brutalists -- all of the power and none of the crap. As for Franz Treichler, he's a powerful rock singer par excellence and doesn't hold back, and together the three simply slay the crowd. A crunching romp through "Envoye" fades spectrally into the string loop from "Chanson Rouge," "Jimmy" and "Skinflowers" rip right along, "Summer Eyes" works just as epically well live as on disc, and the Weill covers "September Song" and "Seerauber Jenny" make for a great closing one-two punch. ~Allmusic

Track listing
01. Intro (2:50)
02. Tv Sky (3:49)
03. Jimmy (2:37)
04. Envoje/Chanson Rouge (5:02)
05. L'eau Rouge (3:42)
06. Skinflowers (5:23)
07. She Rains (2:50)
08. Summer Eyes (13:40)
09. Pas Mal (2:58)
10. Longue Route (4:48)
11. September Song (4:00)
12. Seerauber Jenny (6:24)
~ (58:04)

Personnel
- Al Mono (Alain Monod) - Keyboards, Producer, Mixing
- Üse Drums (Urs Hiestand) - Drums
- Phil McKellar - Recording
- Kevin Metcalfe - Mastering
- Franz Reise (Franz Treichler) - Vocals

Exact Audio Copy V0.99 prebeta 5 from 4. May 2009

Отчёт EAC об извлечении, выполненном 27. сентября 2009, 15:27

The Young Gods / Liva Sky Tour

Дисковод: TSSTcorpCD/DVDW SH-S182M Adapter: 0 ID: 0

Режим чтения : Достоверность
?спользование точного потока : Да
Отключение кэ?а аудио : Да
?спользование указателей C2 : Нет

Коррекция смещения при чтении : 6
Способность читать области Lead-in и Lead-out : Нет
Заполнение пропущенных сэмплов ти?иной : Да
Удаление блоков с ти?иной в начале и конце : Нет
При вычислениях CRC использовались нулевые сэмплы : Да
?нтерфейс : Встроенный Win32-интерфейс для Win NT/2000

Выходной формат : Пользовательский кодировщик
Выбранный битрейт : 768 kBit/s
Качество : Высокий
Добавление ID3-тэга : Нет
Утилита сжатия : C:\Program Files\Exact Audio Copy\FLAC\FLAC.EXE
Дополнительные параметры : -6 -V -T "ARTIST=%a" -T "TITLE=%t" -T "ALBUM=%g" -T "DATE=%y" -T "TRACKNUMBER=%n" -T "GENRE=%m" -T "COMMENT=%e" %s -o %d

TOC извлечённого CD Трек | Старт | Длительность | Начальный сектор | Конечный сектор

1 | 0:00.00 | 2:49.45 | 0 | 12719
2 | 2:49.45 | 3:48.67 | 12720 | 29886
3 | 6:38.37 | 2:37.18 | 29887 | 41679
4 | 9:15.55 | 5:02.30 | 41680 | 64359
5 | 14:18.10 | 3:42.32 | 64360 | 81041
6 | 18:00.42 | 5:23.23 | 81042 | 105289
7 | 23:23.65 | 2:49.72 | 105290 | 118036
8 | 26:13.62 | 13:39.60 | 118037 | 179521
9 | 39:53.47 | 2:57.48 | 179522 | 192844
10 | 42:51.20 | 4:48.20 | 192845 | 214464
11 | 47:39.40 | 4:00.05 | 214465 | 232469
12 | 51:39.45 | 6:24.30 | 232470 | 261299

Характеристики диапазона извлечения и сообщения об о?ибках

Выбранный диапазон ?мя файла C:\Documents and Settings\User\Мои документы\Code\1993 The Young Gods Live Sky Tour\The Young Gods - Liva Sky Tour.wav Пиковый уровень 100.0 %
Качество диапазона 99.9 %
CRC теста A67F6D43
CRC копии A67F6D43
Копирование... OK

О?ибок не произо?ло


AccurateRip: сводка

Трек 1 точное извлечение (доверие 3) [1155F46F]
Трек 2 точное извлечение (доверие 3) [02FCF1FD]
Трек 3 точное извлечение (доверие 3) 3DAD8FD
Трек 4 точное извлечение (доверие 3) [A80105EC]
Трек 5 точное извлечение (доверие 3) [5A92C532]
Трек 6 точное извлечение (доверие 3) [6538409C]
Трек 7 точное извлечение (доверие 3) [2DA01927]
Трек 8 точное извлечение (доверие 3) [CCF9B556]
Трек 9 точное извлечение (доверие 3) [353D7E35]
Трек 10 точное извлечение (доверие 3) [A60C9472]
Трек 11 точное извлечение (доверие 3) [E6D35BB3]
Трек 12 точное извлечение (доверие 3) [50B213EB]

Все треки извлечены точно

Конец отчёта

[CUETools log; Date: 2015.11.03. 8:43:12; Version: 2.1.5]
[AccurateRip ID: 001766b2-00e2c2cb-8f0d9c0c] found.
Track [ CRC | V2 ] Status
01 [1155f46f|1da363eb] (14+10/24) Accurately ripped
02 [02fcf1fd|4e0d7a9d] (13+10/23) Accurately ripped
03 3dad8fd|d92ffca7 (14+10/24) Accurately ripped
04 [a80105ec|8ca4614a] (14+10/24) Accurately ripped
05 [5a92c532|a51d8dc6] (14+10/24) Accurately ripped
06 [6538409c|39988cf9] (14+10/24) Accurately ripped
07 [2da01927|5359679a] (14+10/24) Accurately ripped
08 [ccf9b556|42a3faa4] (14+10/24) Accurately ripped
09 [353d7e35|61e4758d] (15+10/25) Accurately ripped
10 [a60c9472|ab6eddd2] (15+09/24) Accurately ripped
11 [e6d35bb3|11b7e891] (15+09/24) Accurately ripped
12 [50b213eb|6a5b4795] (15+10/25) Accurately ripped

Track Peak [ CRC32 ] [W/O NULL]
-- 100,0 [A67F6D43] [6B578796]
01 76,8 [A5627BEE] [52DE2AE9]
02 93,3 [6D3837C9] [6171C13E]
03 99,1 [E293D0B7] [00AA6CE7]
04 100,0 [15D0F6A5] [5C4A333E]
05 100,0 [AC139C71] [1D9F51F2]
06 100,0 86936E9 [EFC3D7CA]
07 94,8 [79F973B3] [F03ABFE1]
08 100,0 [76DEFE3C] [F24B88C9]
09 100,0 [AA1AC7BC] [5E5CB6ED]
10 99,1 [D2BC57FE] [FE8D5B2D]
11 89,8 [187195B8] [1CC303B5]
12 95,7 [A0742D19] [8F903ADB]

Thx to DENKAS
password: asd
DOWNLOAD LINKS:
Buy Premium To Support Me & Get Resumable Support & Max Speed


Links are Interchangeable - No Password - Single Extraction

The Young Gods - Live Sky Tour (1993) Fast Download


Cheap VPN

 
 
 
Dear visitor, you went to the site as an unregistered user. We encourage you to register or enter the site under your name.
 
   
 
 (Votes #: 0)