2013Zone For Latest Downloads

 
     
 
Legal Downloads » Movies » BBC Imagine - Antony Gormley: Being Human (2015)
Menu
Home Applications
Games Movies
Music TV Shows
Torrents Graphics

Sitemap

RSS
 
Advanced Search
Last News
Site Info
Top Contributors:
  1    supper88 32766
  2    admin 32711
  3    Whisky 10080
  4    Shark_ 8911
  5    creativelivenew 8706
  6    whathesupa 2799
  7    candymypost 840
  8    hvnteam 629
  9    vuong87 3


Articles:
  This Hour: 0
  Today: 0
  This Month: 12
  All Time: 515504


Torrents:
  Today: 0
  Yesterday: 0
  All Time: 156679


Membership:
  Registered Today :0
  This Hour:0
  This Month:0
  Total:14
  Banned:1

{online}
{inform_torrent}
Friend:
Full Download Scripts
Torrent Download
Trend
Trend

Search In Site

Movies : BBC Imagine - Antony Gormley: Being Human (2015)
 

http://i67.fastpic.ru/big/2015/1110/da/c98b01cbe8b7f16a793c1f4cbfdd12da.jpg
BBC Imagine - Antony Gormley: Being Human (2015)
HDTV | 1280x720 | .MP4/AVC @ 3022 Kbps | 1h 6mn | Audio: English AAC 152 kbps, 2 channels | Subs: English | 1.48 GiB
Genre: Documentary

"Alan Yentob meets the sculptor Antony Gormley, creator of the iconic Angel of the North, and uncovers the influences that have shaped his life and work. Across a career spanning more than forty years, Gormley has used sculpture as a means to examine the human condition. He explains how his strict Catholic childhood and his subsequent search for enlightenment in India influenced his decision to become a sculptor. 'If you are brought up a Catholic you may lose your Catholicism but the fact is it has marked you for life. And the need to replace its belief system with something else becomes your life's work.' Imagine shows rare archive footage of the creation of Gormley's key works, including the sculptor being fully encased in plaster to create casts of his own body, as well as footage of the installation of the Angel of the North. We also follow exhibitions this year in Paris, Florence and on Lundy Island."

General
Complete name : BBC.Imagine.2015.Antony.Gormley.Being.Human.mp4
Format
: MPEG-4
Format profile : Base Media
Codec ID
: isom
File size
: 1.48 GiB
Duration
: 1h 6mn
Overall bit rate mode : Variable
Overall bit rate : 3 169 Kbps

Video
ID : 1
Format
: AVC
Format/Info
: Advanced Video Codec
Format profile : [email protected]
Format settings, CABAC : No
Format settings, ReFrames : 1 frame
Format settings, GOP : M=1, N=12
Codec ID
: avc1
Codec ID/Info : Advanced Video Coding
Duration
: 1h 6mn
Bit rate
: 3 022 Kbps
Maximum bit rate : 15.4 Mbps
Width
: 1 280 pixels
Height
: 720 pixels
Display aspect ratio : 16:9
Frame rate mode : Constant
Frame rate
: 25.000 fps
Color space
: YUV
Chroma subsampling

: 4:2:0
Bit depth
: 8 bits
Scan type
: Progressive
Bits/(Pixel*Frame)

: 0.131
Stream size
: 1.41 GiB (95%)
Encoded date : UTC 2015-11-04 17:20:34
Tagged date
: UTC 2015-11-04 19:12:04

Audio
ID : 2
Format
: AAC
Format/Info
: Advanced Audio Codec
Format profile : LC
Codec ID
: 40
Duration
: 1h 6mn
Bit rate mode : Variable
Bit rate
: 152 Kbps
Maximum bit rate : 250 Kbps
Channel(s)
: 2 channels
Channel positions: Front: L R
Sampling rate : 48.0 KHz
Compression mode : Lossy
Stream size
: 72.5 MiB (5%)
Encoded date : UTC 2015-11-04 19:11:54
Tagged date
: UTC 2015-11-04 19:12:04

Text
ID : 3
Format
: Timed Text
Codec ID
: tx3g
Duration
: 1h 6mn
Bit rate mode : Variable
Bit rate
: 67 bps
Stream size
: 33.0 KiB (0%)
Encoded date : UTC 2015-11-04 19:12:04
Tagged date
: UTC 2015-11-04 19:12:04

Screenshots:

http://i75.fastpic.ru/big/2015/1110/7f/43da693b39af7dfb591d8df47be46a7f.jpg

http://i74.fastpic.ru/big/2015/1110/45/9d5870c54c13be0c37b9d35e3d34c345.jpg

http://i65.fastpic.ru/big/2015/1110/ed/487dc02eac6a9db2ec6680ebb666b7ed.jpg

http://i75.fastpic.ru/big/2015/1110/b9/958b9e3231b536647ec9da72cfb680b9.jpg


DOWNLOAD LINKS:
Buy Premium To Support Me & Get Resumable Support & Max Speed


Links are Interchangeable - No Password - Single Extraction

BBC Imagine - Antony Gormley: Being Human (2015) Fast Download



 
 
 
Dear visitor, you went to the site as an unregistered user. We encourage you to register or enter the site under your name.
 
   
 
 (Votes #: 0)