2013Zone For Latest Downloads

 
     
 
Legal Downloads » Music » King Crimson - Islands (1971) (HDCD)
Menu
Home Applications
Games Movies
Music TV Shows
Torrents Graphics

Sitemap

RSS
 
Advanced Search
Last News
Site Info
Top Contributors:
  1    supper88 32766
  2    admin 32693
  3    Whisky 10080
  4    Shark_ 8911
  5    creativelivenew 8706
  6    whathesupa 2799
  7    candymypost 840
  8    hvnteam 629
  9    vuong87 3


Articles:
  This Hour: 0
  Today: 0
  This Month: 62
  All Time: 515562


Torrents:
  Today: 0
  Yesterday: 0
  All Time: 156685


Membership:
  Registered Today :0
  This Hour:0
  This Month:0
  Total:14
  Banned:1

{online}
{inform_torrent}
Friend:
We Recomend
Trend
Trend
XsAd

Search In Site

Music : King Crimson - Islands (1971) (HDCD)
 
http://i65.fastpic.ru/big/2015/1110/e0/862d528b0819278056499a4d848880e0.jpg

King Crimson - Islands (1971) (HDCD)
Rock | 1cd | EAC Rip | Flac + Cue + Log | covers
Discipline Global Mobile, DGM0504 | rem: 2004 | 410Mb

The weakest Crimson studio album from their first era is only a real disappointment in relation to the extraordinarily high quality of the group's earlier efforts. The songs are somewhat uneven and draw from three years of inspiration. "The Letter" is an adaptation of "Drop In," a group composition that was featured in the early set of the original Crimson lineup from 1969, while "Song of the Gulls" goes back to the pre-King Crimson trio of Giles, Giles & Fripp for its source ("Suite No. 1").
There are also a few surprises, such as the Beatles-like harmonies on the raunchy "Ladies of the Road" and the extraordinary interweaving of electric guitar and Mellotron by Robert Fripp on "A Sailor's Tale, which is one of the highlights of the early- to mid-period group's output. Some of the music overstays its welcome -- several of the six tracks are extended too far, out of the need to fill up an LP -- but the virtuosity of the band picks up most of the slack on the composition side: Collins' saxes and Wallace's drums keep things much more than interesting in tandem with Fripp's guitar and Mellotron, and guest vocalist Paulina Lucas' keening accompaniment carries parts of "Formentera Lady" that might otherwise have dragged. ~Allmusic

Track listing
01. Formentera Lady (10:19)
02. Sailor's Tale (7:30)
03. The Letters (4:29)
04. Ladies Of The Road (5:34)
05. Prelude: Song Of The Gulls (4:15)
06. Islands (11:51)
~ (43:57)

Personnel
- Robert Fripp - guitar, mellotron, harmonium (6), sundry implements
- Peter Sinfield - words, sounds and visions, cover design & painting
- Mel Collins - saxophones, flute, bass flute (6), backing vocals
- Ian Wallace - drums, percussion, backing vocals
- Boz Burrell (credited as "Boz") - bass, lead vocals, choreography

Exact Audio Copy V1.0 beta 3 from 29. August 2011

Отчёт EAC об извлечении, выполненном 25. августа 2013, 1:30

KING CRIMSON / Islands

Дисковод: TSSTcorpCDDVDW SH-224DB Adapter: 4 ID: 1

Режим чтения : Достоверность
?спользование точного потока : Да
Отключение кэ?а аудио : Да
?спользование указателей C2 : Нет

Коррекция смещения при чтении : 6
Способность читать области Lead-in и Lead-out : Нет
Заполнение пропущенных сэмплов ти?иной : Да
Удаление блоков с ти?иной в начале и конце : Нет
При вычислениях CRC использовались нулевые сэмплы : Да
?нтерфейс : Встроенный Win32-интерфейс для Win NT/2000

Выходной формат : Внутренние WAV-операции
Формат сэмплов : 44.100 Гц; 16 бит; стерео

TOC извлечённого CD Трек | Старт | Длительность | Начальный сектор | Конечный сектор

1 | 0:00.00 | 10:18.47 | 0 | 46396
2 | 10:18.47 | 7:29.53 | 46397 | 80124
3 | 17:48.25 | 4:29.05 | 80125 | 100304
4 | 22:17.30 | 5:34.20 | 100305 | 125374
5 | 27:51.50 | 4:14.45 | 125375 | 144469
6 | 32:06.20 | 11:51.10 | 144470 | 197804

Характеристики диапазона извлечения и сообщения об о?ибках

Выбранный диапазон ?мя файла D:\TEMP\KING CRIMSON - 1971 - Islands [2004 24-bit remaster, HDCD, DGM0504].wav Пиковый уровень 89.8 %
Скорость извлечения 6.8 X
Качество диапазона 99.9 %
CRC теста B7A57F10
CRC копии B7A57F10
Копирование... OK

О?ибок не произо?ло


AccurateRip: сводка

Трек 1 : извлечено точно (доверие 11) [9871A6AD] (AR v2)
Трек 2 : извлечено точно (доверие 11) [7950DE60] (AR v2)
Трек 3 : извлечено точно (доверие 11) [F48C597D] (AR v2)
Трек 4 : извлечено точно (доверие 11) [1E319614] (AR v2)
Трек 5 : извлечено точно (доверие 11) [727DC4FB] (AR v2)
Трек 6 : извлечено точно (доверие 11) [57B5387A] (AR v2)

Все треки извлечены точно

Конец отчёта

[CUETools log; Date: 2015.11.06. 22:42:57; Version: 2.1.5]
HDCD: peak extend: yes, transient filter: none, gain: none
[AccurateRip ID: 000a98cd-00372030-470a4d06] found.
Track [ CRC | V2 ] Status
01 [95f25fb4|9871a6ad] (017+019/314) Accurately ripped
02 [dab9b2f3|7950de60] (017+019/310) Accurately ripped
03 [3660b895|f48c597d] (017+019/312) Accurately ripped
04 [8ccf8727|1e319614] (017+019/311) Accurately ripped
05 [e856002d|727dc4fb] (017+019/310) Accurately ripped
06 [3a7fc90d|57b5387a] (017+019/302) Accurately ripped
Offsetted by -2203:
01 [73ae0471] (002/314) Accurately ripped
02 [1eb69b07] (002/310) Accurately ripped
03 [4769aa21] (002/312) Accurately ripped
04 [ec193157] (002/311) Accurately ripped
05 [86c31b8a] (002/310) Accurately ripped
06 [d1a091b7] (002/302) Accurately ripped
Offsetted by -1906:
01 [a71370d8] (005/314) Accurately ripped
02 [3bd7294d] (004/310) Accurately ripped
03 [6899cb30] (005/312) Accurately ripped
04 [88dfa145] (005/311) Accurately ripped
05 [c86da8c7] (005/310) Accurately ripped
06 [7958bc57] (004/302) Accurately ripped
Offsetted by -1242:
01 [7834733b] (009/314) Accurately ripped
02 [f0cfef0c] (010/310) Accurately ripped
03 [25d1db1e] (008/312) Accurately ripped
04 [e7527a3c] (008/311) Accurately ripped
05 [fd9679eb] (008/310) Accurately ripped
06 [c48c5348] (008/302) Accurately ripped
Offsetted by -583:
01 [d3c1c51a] (010/314) Accurately ripped
02 [7428f66b] (010/310) Accurately ripped
03 [3a30228c] (010/312) Accurately ripped
04 [81ce9ca6] (010/311) Accurately ripped
05 [7790141b] (010/310) Accurately ripped
06 [2cbd0398] (010/302) Accurately ripped
Offsetted by -358:
01 [2794a658] (009/314) Accurately ripped
02 [4b1cc138] (009/310) Accurately ripped
03 [e65e0390] (009/312) Accurately ripped
04 [9af4704f] (009/311) Accurately ripped
05 [ea011621] (009/310) Accurately ripped
06 [9e3bb291] (009/302) Accurately ripped
Offsetted by 14:
01 [c7b40db4] (008/314) Accurately ripped
02 [8228462d] (008/310) Accurately ripped
03 [64e9b5b5] (007/312) Accurately ripped
04 00820c9 (007/311) Accurately ripped
05 [e5124b92] (007/310) Accurately ripped
06 [920e1a5f] (007/302) Accurately ripped
Offsetted by 50:
01 [aef9ed03] (004/314) Accurately ripped
02 [4edf49fd] (004/310) Accurately ripped
03 [89e93a27] (004/312) Accurately ripped
04 [c9853eb1] (004/311) Accurately ripped
05 [a68699fb] (004/310) Accurately ripped
06 [a9d35631] (004/302) Accurately ripped
Offsetted by 68:
01 [5dc1c423] (003/314) Accurately ripped
02 [aa7c60e1] (003/310) Accurately ripped
03 [da61846f] (003/312) Accurately ripped
04 [0d92670a] (003/311) Accurately ripped
05 [8cb33c0d] (003/310) Accurately ripped
06 aece51d (003/302) Accurately ripped
Offsetted by 86:
01 [588c39c0] (082/314) Accurately ripped
02 [2766d65a] (079/310) Accurately ripped
03 [7e306f45] (081/312) Accurately ripped
04 0447166 (080/311) Accurately ripped
05 [7213cd89] (080/310) Accurately ripped
06 [d7f66ecc] (076/302) Accurately ripped
Offsetted by -2185:
01 [e951a1e8] (000/314) No match (V2 was not tested)
02 [f1092e40] (000/310) No match (V2 was not tested)
03 [3eae0dc2] (000/312) No match (V2 was not tested)
04 [8b857426] (000/311) No match (V2 was not tested)
05 [1ce7acf6] (000/310) No match (V2 was not tested)
06 [e2922f96] (000/302) No match (V2 was not tested)
Offsetted by -596:
01 [4978e222] (000/314) No match (V2 was not tested)
02 [7b2bd6f6] (000/310) No match (V2 was not tested)
03 [900a74e1] (000/312) No match (V2 was not tested)
04 [8fa05b10] (000/311) No match (V2 was not tested)
05 [78ad8a19] (000/310) No match (V2 was not tested)
06 [787eb31e] (000/302) No match (V2 was not tested)
Offsetted by 80:
01 [56506706] (000/314) No match (V2 was not tested)
02 [64bd27d0] (000/310) No match (V2 was not tested)
03 [c9e1db94] (000/312) No match (V2 was not tested)
04 [183f8607] (000/311) No match (V2 was not tested)
05 [f5f863b7] (000/310) No match (V2 was not tested)
06 [8e27786a] (000/302) No match (V2 was not tested)

Track Peak [ CRC32 ] [W/O NULL] [ LOG ]
-- 89,8 7A57F10 [CD822A22] CRC32
01 79,7 [E0ED5C20] [2DC5DC86]
02 89,7 [4A900927] [52BB0297]
03 83,9 [3779C6B0] [39D05A51]
04 89,8 [FE3B4CF9] [860DC5F4]
05 54,2 [CEEDC3DD] [E279D11D]
06 77,1 [C57AF2A8] [6BEE7508]

Thx to spAceLover
password: asd
DOWNLOAD LINKS:
Buy Premium To Support Me & Get Resumable Support & Max Speed


Links are Interchangeable - No Password - Single Extraction

King Crimson - Islands (1971) (HDCD) Fast Download


XsAd2

 
 
 
Dear visitor, you went to the site as an unregistered user. We encourage you to register or enter the site under your name.
 
   
 
 (Votes #: 0)