2013Zone For Latest Downloads

 
     
 
Legal Downloads » TV Shows » Channel 5 - Secrets of the Scammers: Series 1 (2015)
Menu
Home Applications
Games Movies
Music TV Shows
Torrents Graphics

Sitemap

RSS
 
Advanced Search
Last News
Site Info
Top Contributors:
  1    supper88 32766
  2    admin 32693
  3    Whisky 10080
  4    Shark_ 8911
  5    creativelivenew 8706
  6    whathesupa 2799
  7    candymypost 840
  8    hvnteam 629
  9    vuong87 3


Articles:
  This Hour: 10
  Today: 10
  This Month: 62
  All Time: 515562


Torrents:
  Today: 0
  Yesterday: 10
  All Time: 156685


Membership:
  Registered Today :0
  This Hour:0
  This Month:0
  Total:14
  Banned:1

{online}
{inform_torrent}
Friend:
We Recomend
Trend
Trend
XsAd

Search In Site

TV Shows : Channel 5 - Secrets of the Scammers: Series 1 (2015)
 

http://i67.fastpic.ru/big/2015/1110/35/9935615c036d4109977f8097dd81b535.jpg
Channel 5 - Secrets of the Scammers: Series 1 (2015)
HDTV | 1280x720 | .MP4/AVC @ 3011 Kbps | 45mn 49s | Audio: English AAC 160 kbps, 2 channels | Subs: None | 3.05 GiB
Genre: Documentary

"From online swindles to phone scams, Alexis Conran discovers how fraudsters manage to con people out of their hard-earned cash. With the help of fraud experts, Alexis explains how to avoid falling victim to the scammers and their ever-evolving tactics."

Part 1:
Alexis Conran investigates new forms of financial fraud, meeting some of those who have lost money to fraudsters and examining the clever tricks they employ to con people out of their cash. In the first of three programmes, the North East Regional Special Operations Unit reveals how it captured a gang of tarmac scammers, and on a visit to the Eastbourne Trading Standards Scam Hub in East Sussex, Alex discovers how postal fraudsters are trying to take advantage of the elderly hoping to dupe them out of their life savings

Part 2:
Alexis investigates new forms of financial fraud, looking at the stories of Kat, whose money went missing from her personal account, Viv, who lost her life savings in an email scam, and a former MI6 agent and his wife, who were tricked into thinking they were working for the police when they were actually helping the scammers. Plus, the National Trading Standards eCrime team and the West Midlands police break down doors to reach online scammers, and Alexis meets the man who could have made 13million in one day if he had been on the wrong side of the law

Part 3:
Alexis investigates new forms of financial fraud, looking at the stories of Sheila, who was left penniless and heartbroken by an online romance scam, and Sarah, whose identity was stolen from her post box. Plus, the Senior Fraud Prevention Officer at the Dedicated Card and Payment Crime Unit reveals how fraudsters can find out people's details and steal their cash from ATMs, and Ethical Hacker Scott shows three social media users how much incriminating evidence they are putting online. Security expert James Lyne advises the elderly on criminals who promise to fix broken tiles, before their prices go through the roof

General
Complete name : Secrets.Of.The.Scammers.Series.1.1of3.mp4
Format
: MPEG-4
Format profile : Base Media
Codec ID
: isom
File size
: 1.02 GiB
Duration
: 45mn 49s
Overall bit rate mode : Variable
Overall bit rate : 3 176 Kbps

Video
ID : 1
Format
: AVC
Format/Info
: Advanced Video Codec
Format profile : [email protected]
Format settings, CABAC : No
Format settings, ReFrames : 1 frame
Format settings, GOP : M=1, N=12
Codec ID
: avc1
Codec ID/Info : Advanced Video Coding
Duration
: 45mn 49s
Bit rate
: 3 011 Kbps
Width
: 1 280 pixels
Height
: 720 pixels
Display aspect ratio : 16:9
Frame rate mode : Constant
Frame rate
: 25.000 fps
Color space
: YUV
Chroma subsampling

: 4:2:0
Bit depth
: 8 bits
Scan type
: Progressive
Bits/(Pixel*Frame)

: 0.131
Stream size
: 987 MiB (95%)
Encoded date : UTC 2015-11-05 14:57:34
Tagged date
: UTC 2015-11-05 14:57:34

Audio
ID : 2
Format
: AAC
Format/Info
: Advanced Audio Codec
Format profile : LC
Codec ID
: 40
Duration
: 45mn 49s
Bit rate mode : Variable
Bit rate
: 160 Kbps
Channel(s)
: 2 channels
Channel positions: Front: L R
Sampling rate : 48.0 KHz
Compression mode : Lossy
Stream size
: 52.4 MiB (5%)
Encoded date : UTC 2015-11-05 14:57:34
Tagged date
: UTC 2015-11-05 14:57:34

Screenshots:

http://i67.fastpic.ru/big/2015/1110/fc/534c7137216c495e5d51d8970ed4e1fc.jpg

http://i65.fastpic.ru/big/2015/1110/38/e985f0942b62dc5497c770ee63bc7e38.jpg

http://i66.fastpic.ru/big/2015/1110/f1/c65a006a96e979b7426163294d0d1bf1.jpg

http://i76.fastpic.ru/big/2015/1110/69/309b8d618c92b5e9a6a63084d72f4969.jpg


DOWNLOAD LINKS:
Buy Premium To Support Me & Get Resumable Support & Max Speed


Links are Interchangeable - No Password - Single Extraction

Channel 5 - Secrets of the Scammers: Series 1 (2015) Fast Download


XsAd2

 
 
 
Dear visitor, you went to the site as an unregistered user. We encourage you to register or enter the site under your name.
 
   
 
 (Votes #: 0)