2013Zone For Latest Downloads

 
     
 
Legal Downloads » Music » Necromonkey - Show Me Where It Hertz (2015)
Menu
Home Applications
Games Movies
Music TV Shows
Torrents Graphics

Sitemap

RSS
 
Advanced Search
Last News
Site Info
Top Contributors:
  1    supper88 32766
  2    admin 32651
  3    Whisky 10080
  4    Shark_ 8911
  5    creativelivenew 8706
  6    whathesupa 2799
  7    candymypost 840
  8    hvnteam 629
  9    vuong87 3


Articles:
  This Hour: 0
  Today: 0
  This Month: 13
  All Time: 515682


Torrents:
  Today: 0
  Yesterday: 0
  All Time: 156685


Membership:
  Registered Today :0
  This Hour:0
  This Month:0
  Total:14
  Banned:1

{online}
{inform_torrent}
Friend:
We Recomend
Trend
Trend
onlinemovies

Search In Site

ad1

Music : Necromonkey - Show Me Where It Hertz (2015)
 
http://i65.fastpic.ru/big/2015/1113/94/fd97915a39fd1d7fd3d89a9aa62b3094.jpg

Necromonkey - Show Me Where It Hertz (2015)
EAC Rip | FLAC (Img) + Cue + Log ~ 267 Mb | MP3 CBR320 ~ 110 Mb
Scans (PNG, 600 dpi) ~ 112 Mb | RAR 5% Recovery
Dark Eclectic Prog, Electronic, Experimental | Roth Händle Recordings #RO 016

"Necromonkey is the collaboration between drummer Mattias Olsson who was part of the founding members of swedish band Änglagård, of which he left in 2012, and keyboardist David Lundberg from Gösta Berlings Saga. The two first met in 2008 while working on Gösta Berlings Saga's second album Detta har hänt and thought about working together. 2010 saw the begining of the writing and recording for their first album Necroplex in Olsson's Roth-Händle studios in Stockholm. Their vision was not about making an Änglagård meets Gösta Berlings Saga kind of album but instead focusing on something new which will reflect everything they love in music..."

Prog Archives | Discogs
***************

http://i74.fastpic.ru/big/2015/1113/dd/e29ba6cf32291232929c5c3b5a68f2dd.jpg

Track List:

01. Entering The Sublevels Of Necroplex [10:55]
02. Everybody Likes Hornets But Nobody Likes Hornet Egg [05:00]
03. The Rage Within The Clouds [10:30]
04. The Electric Rectum Electoral [06:27]
05. Like Fun You Are [06:55]
06. The Current Beneath The Squarewave [05:57]

Exact Audio Copy V1.1 from 23. June 2015

EAC extraction logfile from 10. November 2015, 18:05

Necromonkey / Show Me Where It Hertz

Used drive : TSSTcorpCDDVDW SH-S223C Adapter: 1 ID: 0

Read mode : Secure
Utilize accurate stream : Yes
Defeat audio cache : Yes
Make use of C2 pointers : No

Read offset correction

: 697
Overread into Lead-In and Lead-Out : No
Fill up missing offset samples with silence : Yes
Delete leading and trailing silent blocks : No
Null samples used in CRC calculations : Yes
Used interface
: Native Win32 interface for Win NT & 2000

Used output format : User Defined Encoder
Selected bitrate : 128 kBit/s
Quality : High
Add ID3 tag : No
Command line compressor : C:\Program Files (x86)\Exact Audio Copy\wavpack\wavpack.exe
Additional command line options : -hm -w "Year=%year%" -w "Genre=%genre%" %source% %dest%

TOC of the extracted CD Track | Start | Length | Start sector | End sector
--1 | 0:00.00 | 10:54.39 | 0 | 49088 2 | 10:54.39 | 4:59.13 | 49089 | 71526 3 | 15:53.52 | 10:29.66 | 71527 | 118767 4 | 26:23.43 | 6:26.59 | 118768 | 147776 5 | 32:50.27 | 6:54.13 | 147777 | 178839 6 | 39:44.40 | 5:56.13 | 178840 | 205552

Range status and errors

Selected range Filename D:\_NL+_\_CD\Necromonkey - Show Me Where It Hertz.wav Peak level 100.0 %
Extraction speed 6.0 X
Range quality 99.9 %
Test CRC AC5C265E
Copy CRC AC5C265E
Copy OK

No errors occurred


AccurateRip summary

Track 1 accurately ripped (confidence 1) [9DD07BFA] (AR v2)
Track 2 accurately ripped (confidence 1) [575FAE52] (AR v2)
Track 3 accurately ripped (confidence 1) [5C533692] (AR v2)
Track 4 accurately ripped (confidence 1) [1E1235F5] (AR v2)
Track 5 accurately ripped (confidence 1) [CCCBD9A2] (AR v2)
Track 6 accurately ripped (confidence 1) [8E6AE84C] (AR v2)

All tracks accurately ripped

End of status report

- CUETools DB Plugin V2.1.6

[CTDB TOCID: BR2icCjCuKunt3Jnu0t_JNXw3Yw-] found
Submit result: BR2icCjCuKunt3Jnu0t_JNXw3Yw- has been confirmed
Track | CTDB Status
1 | (2/2) Accurately ripped
2 | (2/2) Accurately ripped
3 | (2/2) Accurately ripped
4 | (2/2) Accurately ripped
5 | (2/2) Accurately ripped
6 | (2/2) Accurately ripped

==== Log checksum 865BF7758CAC59B686AD782C39E28BEFBCE1EC740D1A85E1D78D6D3E0460E755 ====

foobar2000 1.2.6 / Dynamic Range Meter 1.1.1
log date: 2015-11-12 03:14:33

Analyzed: Necromonkey / Show Me Where It Hertz

DR Peak RMS Duration Track

DR10 -0.07 dB -12.44 dB 10:55 01-Entering The Sublevels Of Necroplex
DR9 0.00 dB -12.03 dB 4:59 02-Everybody Likes Hornets But Nobody Likes Hornet Egg
DR9 0.00 dB -12.40 dB 10:30 03-The Rage Within The Clouds
DR9 0.00 dB -12.88 dB 6:27 04-The Electric Rectum Electoral
DR9 -1.14 dB -13.04 dB 6:54 05-Like Fun You Are
DR9 -0.05 dB -11.89 dB 5:56 06-The Current Beneath The Squarewave

Number of tracks: 6
Official DR value: DR9

Samplerate: 44100 Hz
Channels: 2
Bits per sample: 16
Bitrate: 777 kbps
Codec: FLAC

[CUETools log; Date: 12.11.2015 3:14:26; Version: 2.1.5]
[CTDB TOCID: BR2icCjCuKunt3Jnu0t_JNXw3Yw-] found.
Track | CTDB Status
1 | (3/3) Accurately ripped
2 | (3/3) Accurately ripped
3 | (3/3) Accurately ripped
4 | (3/3) Accurately ripped
5 | (3/3) Accurately ripped
6 | (3/3) Accurately ripped
[AccurateRip ID: 000bc5e2-003d9fe4-5f0ab406] found.
Track [ CRC | V2 ] Status
01 [c4cc905c|9dd07bfa] (0+1/1) Accurately ripped
02 0a4ffb5|575fae52 (0+1/1) Accurately ripped
03 [13d7ec8d|5c533692] (0+1/1) Accurately ripped
04 [51f35874|1e1235f5] (0+1/1) Accurately ripped
05 [a4da46ca|cccbd9a2] (0+1/1) Accurately ripped
06 [8f5d51a7|8e6ae84c] (0+1/1) Accurately ripped

Track Peak [ CRC32 ] [W/O NULL] [ LOG ]
-- 100,0 [AC5C265E] [1287A210] CRC32
01 99,1 [1E5576D0] [7524E990]
02 99,9 [81BF14D6] [9F735BD3]
03 100,0 [18FBE916] [D95FABD3]
04 100,0 [9348876B] [7109332B]
05 87,6 D6D176E [CD316650]
06 99,4 [85A8BE1D] [0EDD99E4]

http://i67.fastpic.ru/big/2015/1113/80/88a61d55a20b228805578fe35b4eea80.jpg

http://i67.fastpic.ru/big/2015/1113/35/b80c045172ac8b823dd659791d6dd635.jpg

DOWNLOAD LINKS:
Buy Premium To Support Me & Get Resumable Support & Max Speed


Links are Interchangeable - No Password - Single Extraction

 
 
 
Dear visitor, you went to the site as an unregistered user. We encourage you to register or enter the site under your name.
 
   
 
 (Votes #: 0)