2013Zone For Latest Downloads

 
     
 
Legal Downloads » Music » East India Youth - Total Strife Forever (2014) {Stolen Recordings}
Menu
Home Applications
Games Movies
Music TV Shows
Torrents Graphics

Sitemap

RSS
 
Advanced Search
Last News
Site Info
Top Contributors:
  1    supper88 32766
  2    admin 32651
  3    Whisky 10080
  4    Shark_ 8911
  5    creativelivenew 8706
  6    whathesupa 2799
  7    candymypost 840
  8    hvnteam 629
  9    vuong87 3


Articles:
  This Hour: 0
  Today: 0
  This Month: 0
  All Time: 515681


Torrents:
  Today: 0
  Yesterday: 0
  All Time: 156685


Membership:
  Registered Today :0
  This Hour:0
  This Month:0
  Total:14
  Banned:1

{online}
{inform_torrent}
Friend:
We Recomend
Trend
Trend
onlinemovies

Search In Site

Music : East India Youth - Total Strife Forever (2014) {Stolen Recordings}
 

http://i73.fastpic.ru/big/2015/1112/99/d3712dd527caab4e6981e41ee68adc99.jpg
East India Youth - Total Strife Forever (2014) {Stolen Recordings}
XLD rip (secure mode) | FLAC (tracks)+CUE+LOG -> 330 Mb | MP3 @320 -> 121 Mb
Full Artwork @ 300 dpi (png) -> 21 Mb | 5% repair rar
© 2014 Stolen Recordings / 4AD / EIY | SR073
Synth-pop / Electronic

"East India Youth's William Doyle is an artist of two halves. On the one hand he's an emotional electronic songsmith: think a James Blake you don't want to grab by the scruff of the neck and pack off to national service. On the other, he's an inventive composer who can turn his hand to Harold Buddesque soundscapes one minute (Total Strife Forever I-IV) and surprisingly banging techno such as Hinterland the next. His debut album - probably the first, and last, to feature a title constructed from a Foals pun - oscillates between these styles in a manner that sometimes lacks coherence."

http://i75.fastpic.ru/big/2015/1112/aa/3b47c866d3b461ce3bd9dc065512e1aa.jpg


tracklist:
01 - Glitter Recession
02 - Total Strife Forever I
03 - Dripping Down
04 - Hinterland
05 - Heaven, How Long
06 - Total Strife Forever II
07 - Looking for Someone
08 - Midnight Koto
09 - Total Strife Forever III
10 - Song for a Granular Piano
11 - Total Strife Forever IV

X Lossless Decoder version 20141129 (148.1)

XLD extraction logfile from 2015-04-11 18:08:14 +0200

East India Youth / Total Strife Forever

Used drive : HL-DT-ST DVDRW GX40N (revision RQ00)
Media type : Pressed CD

Ripper mode : XLD Secure Ripper
Disable audio cache : OK for the drive with a cache less than 1375KiB
Make use of C2 pointers : NO
Read offset correction : 6
Max retry count : 100
Gap status : Analyzed, Appended (except HTOA)

TOC of the extracted CD
Track | Start | Length | Start sector | End sector
--1 | 00:00:00 | 04:19:40 | 0 | 19464 2 | 04:19:40 | 06:35:05 | 19465 | 49094 3 | 10:54:45 | 04:11:13 | 49095 | 67932 4 | 15:05:58 | 06:16:68 | 67933 | 96200 5 | 21:22:51 | 06:09:38 | 96201 | 123913 6 | 27:32:14 | 02:55:04 | 123914 | 137042 7 | 30:27:18 | 04:15:43 | 137043 | 156210 8 | 34:42:61 | 03:13:47 | 156211 | 170732 9 | 37:56:33 | 04:41:28 | 170733 | 191835
10 | 42:37:61 | 04:01:42 | 191836 | 209952
11 | 46:39:28 | 04:25:25 | 209953 | 229852

AccurateRip Summary (DiscID: 001628cd-00bd6c96-a00bf80b)
Track 01 : OK (v2, confidence 16/16)
Track 02 : OK (v2, confidence 16/16)
Track 03 : OK (v2, confidence 16/16)
Track 04 : OK (v2, confidence 16/16)
Track 05 : OK (v2, confidence 16/16)
Track 06 : OK (v2, confidence 16/16)
Track 07 : OK (v2, confidence 16/16)
Track 08 : OK (v2, confidence 16/16)
Track 09 : OK (v2, confidence 16/16)
Track 10 : OK (v2, confidence 16/16)
Track 11 : OK (v2, confidence 16/16)->All tracks accurately ripped.

All Tracks
Album gain : -4.56 dB
Peak : 0.994843
StatisticsRead error : 0Jitter error (maybe fixed) : 0Retry sector count : 0Damaged sector count : 0

Track 01
Filename : /Users/XLD/01 - Glitter Recession.flac
Pre-gap length : 00:02:00 Track gain : -3.77 dB
Peak : 0.984711
CRC32 hash (test run) : E54F8CF1
CRC32 hash : E54F8CF1
CRC32 hash (skip zero) : 10571A8E
AccurateRip v1 signature : BB365408
AccurateRip v2 signature : CC820DC2->Accurately ripped (v2, confidence 16/16)
StatisticsRead error : 0Jitter error (maybe fixed) : 0Retry sector count : 0Damaged sector count : 0

Track 02
Filename : /Users/XLD/02 - Total Strife Forever I.flac Track gain : -3.09 dB
Peak : 0.992737
CRC32 hash (test run) : 31F69C55
CRC32 hash : 31F69C55
CRC32 hash (skip zero) : 2B310E65
AccurateRip v1 signature : 3ECE36F5
AccurateRip v2 signature : 7A3A315A->Accurately ripped (v2, confidence 16/16)
StatisticsRead error : 0Jitter error (maybe fixed) : 0Retry sector count : 0Damaged sector count : 0

Track 03
Filename : /Users/XLD/03 - Dripping Down.flac Track gain : -6.83 dB
Peak : 0.993652
CRC32 hash (test run) : 6C58BEE8
CRC32 hash : 6C58BEE8
CRC32 hash (skip zero) : B2E11DA3
AccurateRip v1 signature : CAAD5190
AccurateRip v2 signature : 645CCCC0->Accurately ripped (v2, confidence 16/16)
StatisticsRead error : 0Jitter error (maybe fixed) : 0Retry sector count : 0Damaged sector count : 0

Track 04
Filename : /Users/XLD/04 - Hinterland.flac Track gain : -3.39 dB
Peak : 0.991730
CRC32 hash (test run) : 2D78A013
CRC32 hash : 2D78A013
CRC32 hash (skip zero) : F8E9AB36
AccurateRip v1 signature : F6026688
AccurateRip v2 signature : 59A65C3C->Accurately ripped (v2, confidence 16/16)
StatisticsRead error : 0Jitter error (maybe fixed) : 0Retry sector count : 0Damaged sector count : 0

Track 05
Filename : /Users/XLD/05 - Heaven, How Long.flac Track gain : -5.61 dB
Peak : 0.994843
CRC32 hash (test run) : CF80DF23
CRC32 hash : CF80DF23
CRC32 hash (skip zero) : 612C41BC
AccurateRip v1 signature : 272F0190
AccurateRip v2 signature : C7C7BC5F->Accurately ripped (v2, confidence 16/16)
StatisticsRead error : 0Jitter error (maybe fixed) : 0Retry sector count : 0Damaged sector count : 0

Track 06
Filename : /Users/XLD/06 - Total Strife Forever II.flac Track gain : -3.42 dB
Peak : 0.907593
CRC32 hash (test run) : 8BF69395
CRC32 hash : 8BF69395
CRC32 hash (skip zero) : 07D2C8A1
AccurateRip v1 signature : 660301DF
AccurateRip v2 signature : 929779BA->Accurately ripped (v2, confidence 16/16)
StatisticsRead error : 0Jitter error (maybe fixed) : 0Retry sector count : 0Damaged sector count : 0

Track 07
Filename : /Users/XLD/07 - Looking for Someone.flac Track gain : -4.76 dB
Peak : 0.989594
CRC32 hash (test run) : 0C3234EE
CRC32 hash : 0C3234EE
CRC32 hash (skip zero) : B7FFF1F6
AccurateRip v1 signature : C5F966B8
AccurateRip v2 signature : 4F80DE65->Accurately ripped (v2, confidence 16/16)
StatisticsRead error : 0Jitter error (maybe fixed) : 0Retry sector count : 0Damaged sector count : 0

Track 08
Filename : /Users/XLD/08 - Midnight Koto.flac Track gain : -2.36 dB
Peak : 0.955475
CRC32 hash (test run) : 206512EC
CRC32 hash : 206512EC
CRC32 hash (skip zero) : 27447EE1
AccurateRip v1 signature : 83BFFA36
AccurateRip v2 signature : C07AC47E->Accurately ripped (v2, confidence 16/16)
StatisticsRead error : 0Jitter error (maybe fixed) : 0Retry sector count : 0Damaged sector count : 0

Track 09
Filename : /Users/XLD/09 - Total Strife Forever III.flac Track gain : -3.33 dB
Peak : 0.951508
CRC32 hash (test run) : F33C06E9
CRC32 hash : F33C06E9
CRC32 hash (skip zero) : 8C03B51F
AccurateRip v1 signature : 609C25BC
AccurateRip v2 signature : 1A71D5CB->Accurately ripped (v2, confidence 16/16)
StatisticsRead error : 0Jitter error (maybe fixed) : 0Retry sector count : 0Damaged sector count : 0

Track 10
Filename : /Users/XLD/10 - Song for a Granular Piano.flac Track gain : -3.71 dB
Peak : 0.991547
CRC32 hash (test run) : C2F571D2
CRC32 hash : C2F571D2
CRC32 hash (skip zero) : 21AA1DD6
AccurateRip v1 signature : 8C33610A
AccurateRip v2 signature : 178926E0->Accurately ripped (v2, confidence 16/16)
StatisticsRead error : 0Jitter error (maybe fixed) : 0Retry sector count : 0Damaged sector count : 0

Track 11
Filename : /Users/XLD/11 - Total Strife Forever IV.flac Track gain : -1.34 dB
Peak : 0.925934
CRC32 hash (test run) : CF14A5F5
CRC32 hash : CF14A5F5
CRC32 hash (skip zero) : 1B7C97DB
AccurateRip v1 signature : 07FA45EE
AccurateRip v2 signature : 459AC1AE->Accurately ripped (v2, confidence 16/16)
StatisticsRead error : 0Jitter error (maybe fixed) : 0Retry sector count : 0Damaged sector count : 0

No errors occurred

End of status report

--BEGIN XLD SIGNATURE--
l5SCnkhkoMcM7AH458iezuwnO11VlJIfsdh6AzHo6m8kx7zali5wC0LbwkYjH13psKt8Sua3HxaX.l1Pg2UmQQ86fcXDg0Hs.adIQr0
--END XLD SIGNATURE--

http://i65.fastpic.ru/big/2015/1112/1d/cb40171cdd61d179ea5f7a78b87cb91d.jpg


All thanks goes to the original releaser!
DOWNLOAD LINKS:
Buy Premium To Support Me & Get Resumable Support & Max Speed


Links are Interchangeable - No Password - Single Extraction

 
 
 
Dear visitor, you went to the site as an unregistered user. We encourage you to register or enter the site under your name.
 
   
 
 (Votes #: 0)