2013Zone For Latest Downloads

 
     
 
Legal Downloads » Music » Die Form - Die Puppe II (2001) [2003, Reissue, Remastered]
Menu
Home Applications
Games Movies
Music TV Shows
Torrents Graphics

Sitemap

RSS
 
Advanced Search
Last News
Site Info
Top Contributors:
  1    supper88 32766
  2    admin 32651
  3    Whisky 10080
  4    Shark_ 8911
  5    creativelivenew 8706
  6    whathesupa 2799
  7    candymypost 840
  8    hvnteam 629
  9    vuong87 3


Articles:
  This Hour: 0
  Today: 0
  This Month: 13
  All Time: 515682


Torrents:
  Today: 0
  Yesterday: 0
  All Time: 156685


Membership:
  Registered Today :0
  This Hour:0
  This Month:0
  Total:14
  Banned:1

{online}
{inform_torrent}
Friend:
We Recomend
Trend
Trend
onlinemovies

Search In Site

ad1

Music : Die Form - Die Puppe II (2001) [2003, Reissue, Remastered]
 
http://i65.fastpic.ru/big/2015/1113/6d/45494abb07eb56cae3c1cccfefb8826d.jpg

Die Form - Die Puppe II (2001/2003)
EAC Rip | FLAC (Img) + Cue + Log ~ 410 Mb | MP3 CBR320 ~ 157 Mb
Scans Included (JPG, 300 dpi) | RAR 5% Recovery
Industrial, Dark Wave, Experimental | Trisol Music/Irond Ltd. #IROND CD 03-543

"Die Form is chiefly the project of French artist Philippe Fichot, who is usually accompanied by singer Eliane P. Primarily an industrial band, Die Form possess a strong gothic sensibility that is manifested in both the music and in the fetishistic sexual imagery of Fichot's lyrics. The project began by recording a number of experimental cassette releases, starting with Die Form 1 in 1977, and with the first Die Form vinyl release ('Die Puppe') appearing in 1982. Whilst the project was still in its infancy, the underlying concepts were still evident - a combination of esoteric electronic experiments with an underlying theme of erotism, death and other 'taboo' subjects, apparent in both the music and the album artwork, which Philippe also produces. Other early projects of Philippe Fichot included Krylon Hertz, Mental Code, Camera Obscura, Eva-Johanna Reichstag, Hurt and Fine Automatic."

Official Website | Wiki | Discogs | All Music
***************

http://i75.fastpic.ru/big/2015/1113/cf/3c05414d5400bc0b6c1f244079bbabcf.jpg

Track List:

01. Re-search [02:37]
02. Automatic Death [03:20]
03. Invalid [05:35]
04. Hand in Hand [03:53]
05. Darkness [04:21]
06. Prefazione di Pompei [04:18]
07. In a Tea-Room [04:50]
08. After the Crime [02:24]
09. Leders Klub [06:06]
10. After the Last Gaze [03:54]
11. Eastern Ghost [01:56]
12. Message Through Her[t]z [06:00]
13. Strange[r] [03:46]
14. Sex by Force [04:38]
15. Ton Retrait des Eaux [02:48]
16. Hidden Track on Die Puppe II [02:41]

Exact Audio Copy V1.1 from 23. June 2015

EAC extraction logfile from 26. October 2015, 7:02

Die Form / Die Puppe II

Used drive : PIONEER BD-RW BDR-209D Adapter: 0 ID: 4

Read mode : Secure
Utilize accurate stream : Yes
Defeat audio cache : Yes
Make use of C2 pointers : No

Read offset correction

: 667
Overread into Lead-In and Lead-Out : No
Fill up missing offset samples with silence : Yes
Delete leading and trailing silent blocks : No
Null samples used in CRC calculations : Yes
Used interface
: Installed external ASPI interface

Used output format : User Defined Encoder
Selected bitrate : 768 kBit/s
Quality : High
Add ID3 tag : No
Command line compressor : C:\Program Files (x86)\Exact Audio Copy\FLAC\FLAC.EXE
Additional command line options : -6 -V -T "ARTIST=%artist%" -T "TITLE=%title%" -T "ALBUM=%albumtitle%" -T "DATE=%year%" -T "TRACKNUMBER=%tracknr%" -T "GENRE=%genre%" -T "COMMENT=%comment%" -T "BAND=%albuminterpret%" -T "ALBUMARTIST=%albuminterpret%" -T "COMPOSER=%composer%" %haslyrics%--tag-from-file=LYRICS="%lyricsfile%"%haslyrics% -T "DISCNUMBER=%cdnumber%" -T "TOTALDISCS=%totalcds%" -T "TOTALTRACKS=%numtracks%" %hascover%--picture="%coverfile%"%hascover% %source% -o %dest%

TOC of the extracted CD Track | Start | Length | Start sector | End sector
--1 | 0:00.00 | 2:36.20 | 0 | 11719 2 | 2:36.20 | 3:19.38 | 11720 | 26682 3 | 5:55.58 | 5:34.60 | 26683 | 51792 4 | 11:30.43 | 3:52.12 | 51793 | 69204 5 | 15:22.55 | 4:20.55 | 69205 | 88759 6 | 19:43.35 | 4:17.58 | 88760 | 108092 7 | 24:01.18 | 4:49.22 | 108093 | 129789 8 | 28:50.40 | 2:23.55 | 129790 | 140569 9 | 31:14.20 | 6:05.18 | 140570 | 167962
10 | 37:19.38 | 3:53.40 | 167963 | 185477
11 | 41:13.03 | 1:55.25 | 185478 | 194127
12 | 43:08.28 | 5:59.57 | 194128 | 221109
13 | 49:08.10 | 3:45.53 | 221110 | 238037
14 | 52:53.63 | 4:37.50 | 238038 | 258862
15 | 57:31.38 | 2:47.32 | 258863 | 271419
16 | 60:18.70 | 2:40.05 | 271420 | 283424

Range status and errors

Selected range Filename E:\MUSIC\Die Form - Die Puppe II.wav Peak level 100.0 %
Extraction speed 8.3 X
Range quality 100.0 %
Test CRC BE8CD652
Copy CRC BE8CD652
Copy OK

No errors occurred


AccurateRip summary

Track 1 cannot be verified as accurate (confidence 3) [60EB9CC7], AccurateRip returned B2A1D26 (AR v2)
Track 2 cannot be verified as accurate (confidence 3) [09EFE90B], AccurateRip returned [8E405231] (AR v2)
Track 3 cannot be verified as accurate (confidence 3) [7592714F], AccurateRip returned [CE762208] (AR v2)
Track 4 cannot be verified as accurate (confidence 3) [697D6D37], AccurateRip returned [8F157414] (AR v2)
Track 5 cannot be verified as accurate (confidence 3) [3D736D55], AccurateRip returned [C8BA7951] (AR v2)
Track 6 cannot be verified as accurate (confidence 3) [96ACBEAF], AccurateRip returned [C34B6C14] (AR v2)
Track 7 cannot be verified as accurate (confidence 3) [2C50525E], AccurateRip returned [A590E48A] (AR v2)
Track 8 cannot be verified as accurate (confidence 3) [023A8DBC], AccurateRip returned [1F740451] (AR v2)
Track 9 cannot be verified as accurate (confidence 3) [E8397A4D], AccurateRip returned [DF152781] (AR v2)
Track 10 cannot be verified as accurate (confidence 3) [2CF12687], AccurateRip returned [DC9579E5] (AR v2)
Track 11 cannot be verified as accurate (confidence 3) [7B4EA4C3], AccurateRip returned [0E69BC1D] (AR v2)
Track 12 cannot be verified as accurate (confidence 3) [48D68727], AccurateRip returned [3C6AC4D9] (AR v2)
Track 13 cannot be verified as accurate (confidence 3) [F82EAABA], AccurateRip returned [312BCB6F] (AR v2)
Track 14 cannot be verified as accurate (confidence 3) [8CDF4565], AccurateRip returned [CAE686BD] (AR v2)
Track 15 cannot be verified as accurate (confidence 3) [251C90B9], AccurateRip returned [DDFDBD0E] (AR v2)
Track 16 cannot be verified as accurate (confidence 3) [CA650D9D], AccurateRip returned [DAC9EDAB] (AR v2)

No tracks could be verified as accurate
You may have a different pressing from the one(s) in the database

End of status report

==== Log checksum 2903C5963A217901FCC98FC10E34527CFFE60A39F5EB3C5F07306D086302D5BF ====

foobar2000 1.2.6 / Dynamic Range Meter 1.1.1
log date: 2015-11-06 15:23:25

Analyzed: Die Form / Die Puppe II

DR Peak RMS Duration Track

DR8 0.00 dB -9.73 dB 2:36 01-Re-search
DR10 0.00 dB -11.12 dB 3:20 02-Automatic Death
DR8 0.00 dB -9.66 dB 5:35 03-Invalid
DR7 0.00 dB -8.06 dB 3:52 04-Hand in Hand
DR10 0.00 dB -11.86 dB 4:21 05-Darkness
DR10 0.00 dB -12.27 dB 4:18 06-Prefazione di Pompei
DR10 0.00 dB -11.58 dB 4:49 07-In a Tea-Room
DR13 0.00 dB -16.12 dB 2:24 08-After the Crime
DR7 0.00 dB -11.98 dB 6:05 09-Leders Klub
DR15 0.00 dB -17.54 dB 3:54 10-After the Last Gaze
DR10 0.00 dB -11.77 dB 1:55 11-Eastern Ghost
DR13 0.00 dB -14.19 dB 6:00 12-Message Through Her[t]z
DR7 0.00 dB -9.04 dB 3:46 13-Strange[r]
DR8 0.00 dB -8.09 dB 4:38 14-Sex by Force
DR10 0.00 dB -11.90 dB 2:47 15-Ton Retrait des Eaux
DR7 0.00 dB -10.23 dB 2:40 16-Hidden Track on Die Puppe II

Number of tracks: 16
Official DR value: DR10

Samplerate: 44100 Hz
Channels: 2
Bits per sample: 16
Bitrate: 855 kbps
Codec: FLAC

[CUETools log; Date: 06.11.2015 15:23:25; Version: 2.1.5]
[CTDB TOCID: WW_xGLLFxFJp71lFj348v0HSUgc-] found.
Track | CTDB Status
1 | (2/2) Accurately ripped
2 | (2/2) Accurately ripped
3 | (2/2) Accurately ripped
4 | (2/2) Accurately ripped
5 | (2/2) Accurately ripped
6 | (2/2) Accurately ripped
7 | (2/2) Accurately ripped
8 | (2/2) Accurately ripped
9 | (2/2) Accurately ripped
10 | (2/2) Accurately ripped
11 | (2/2) Accurately ripped
12 | (2/2) Accurately ripped
13 | (2/2) Accurately ripped
14 | (2/2) Accurately ripped
15 | (2/2) Accurately ripped
16 | (2/2) Accurately ripped
[AccurateRip ID: 002556bf-01c2e438-e20ec310] found.
Track [ CRC | V2 ] Status
01 [07f6fd66|60eb9cc7] (0+0/3) No match
02 [c4823903|09efe90b] (0+0/3) No match
03 [2809951c|7592714f] (0+0/3) No match
04 [dc4960a2|697d6d37] (0+0/3) No match
05 [649e66c8|3d736d55] (0+0/3) No match
06 [35e32081|96acbeaf] (0+0/3) No match
07 05f701d|2c50525e (0+0/3) No match
08 [0a77091f|023a8dbc] (0+0/3) No match
09 [66dbd040|e8397a4d] (0+0/3) No match
10 [5e1e7353|2cf12687] (0+0/3) No match
11 [eefcdfbf|7b4ea4c3] (0+0/3) No match
12 [323e04ca|48d68727] (0+0/3) No match
13 39be894|f82eaaba (0+0/3) No match
14 [ae41fc09|8cdf4565] (0+0/3) No match
15 56286d3|251c90b9 (0+0/3) No match
16 [54daff8a|ca650d9d] (0+0/3) No match
Offsetted by 71:
01 [70ba052a] (0/3) No match (V2 was not tested)
02 [5b56e2a5] (0/3) No match (V2 was not tested)
03 [a02d354d] (0/3) No match (V2 was not tested)
04 [17d00bd3] (0/3) No match (V2 was not tested)
05 [081f1749] (0/3) No match (V2 was not tested)
06 [7a9388d6] (0/3) No match (V2 was not tested)
07 [44bdb869] (0/3) No match (V2 was not tested)
08 [35029ae5] (0/3) No match (V2 was not tested)
09 [7f98b5b2] (0/3) No match (V2 was not tested)
10 [233a3a8b] (0/3) No match (V2 was not tested)
11 [8cbca987] (0/3) No match (V2 was not tested)
12 [46d2c7aa] (0/3) No match (V2 was not tested)
13 [01b1ec0d] (0/3) No match (V2 was not tested)
14 [05ca5777] (0/3) No match (V2 was not tested)
15 [7dc8fdc3] (0/3) No match (V2 was not tested)
16 [618f464a] (0/3) No match (V2 was not tested)

Track Peak [ CRC32 ] [W/O NULL] [ LOG ]
-- 100,0 E8CD652 [14CFAF64] CRC32
01 100,0 [5E733708] [FA2FB3B7]
02 100,0 [4A492617] [6E6C2A99]
03 100,0 [192A5FEC] [68E3CD7B]
04 100,0 [7C81C31E] [E91423E6]
05 100,0 [3C45694D] [2F4981AE]
06 100,0 [F8A6B5A1] [6152E8E5]
07 100,0 [110E5512] [820A5447]
08 100,0 [28EE4F9E] [C96BC2DD]
09 100,0 [63D10D9F] [AFB119D7]
10 100,0 [918E1C8D] [355ADC7F]
11 100,0 [06DE4928] [1D4E0362]
12 100,0 [74657242] [131E7619]
13 100,0 [95CB973D] [1BB547AC]
14 100,0 [39707CC7] [E8EDC6B1]
15 100,0 [960052D0] [82E319C0]
16 100,0 A28F59E 368B147

http://i74.fastpic.ru/big/2015/1113/25/815f061dc2009d61f23d9f26d4ce3f25.jpg

http://i66.fastpic.ru/big/2015/1113/cb/790f449fa32e5d10b774ca6d4887c0cb.jpg


DOWNLOAD LINKS:
Buy Premium To Support Me & Get Resumable Support & Max Speed


Links are Interchangeable - No Password - Single Extraction

 
 
 
Dear visitor, you went to the site as an unregistered user. We encourage you to register or enter the site under your name.
 
   
 
 (Votes #: 0)