2013Zone For Latest Downloads

 
     
 
Legal Downloads » Music » Shonen Knife - Favorites (MCD 1994)
Menu
Home Applications
Games Movies
Music TV Shows
Torrents Graphics

Sitemap

RSS
 
Advanced Search
Last News
Site Info
Top Contributors:
  1    supper88 32766
  2    admin 32651
  3    Whisky 10080
  4    Shark_ 8911
  5    creativelivenew 8706
  6    whathesupa 2799
  7    candymypost 840
  8    hvnteam 629
  9    vuong87 3


Articles:
  This Hour: 0
  Today: 0
  This Month: 13
  All Time: 515682


Torrents:
  Today: 0
  Yesterday: 0
  All Time: 156685


Membership:
  Registered Today :0
  This Hour:0
  This Month:0
  Total:14
  Banned:1

{online}
{inform_torrent}
Friend:
We Recomend
Trend
Trend
onlinemovies

Search In Site

ad1

Music : Shonen Knife - Favorites (MCD 1994)
 

http://i74.fastpic.ru/big/2015/1112/91/5f8fe6369a3fb9aa54d2052c3c7ac291.jpg
Shonen Knife - Favorites (MCD 1994)
FLAC+CUE+LOG or MP3 CBR 320 | Complete Scanwork | 138 or 52 MB

Shonen Knife's "Favorites" is Japan only mini album released in 1994. It features a collection of cover tunes, some of them available only on this release.
Tracklist:

01. (Love Is Like A) Heat Wave [Martha & The Vandellas' cover]
02. Don't Hurt My Little Sister [The Beach Boys' cover]
03. Till The End Of The Day [The Kinks' cover]
04. Boys [The Shirelles' cover]
05. Goose Steppin' Mama (Live) [The Rutles' cover]

Exact Audio Copy V1.1 from 23. June 2015

EAC extraction logfile from 9. November 2015, 0:44

Shonen Knife / Favorites (CD-EP)

Used drive : PIONEER DVD-RW DVR-219L Adapter: 1 ID: 1

Read mode : Secure
Utilize accurate stream : Yes
Defeat audio cache : Yes
Make use of C2 pointers : No

Read offset correction

: 6
Overread into Lead-In and Lead-Out : No
Fill up missing offset samples with silence : Yes
Delete leading and trailing silent blocks : No
Null samples used in CRC calculations : Yes
Used interface
: Native Win32 interface for Win NT & 2000

Used output format : Internal WAV Routines
Sample format : 44.100 Hz; 16 Bit; Stereo

TOC of the extracted CD Track | Start | Length | Start sector | End sector
--1 | 0:00.37 | 2:48.15 | 37 | 12651 2 | 2:48.52 | 3:12.60 | 12652 | 27111 3 | 6:01.37 | 2:05.40 | 27112 | 36526 4 | 8:07.02 | 2:08.65 | 36527 | 46191 5 | 10:15.67 | 2:47.23 | 46192 | 58739

Range status and errors

Selected range Filename F:\_AvaxHome__Rehabilly\SHONEN KNIFE\1994- Favorites (MCD) [Japanese Release]\Shonen Knife - Favorites (MVCD-17001).wav Peak level 100.0 %
Extraction speed 2.0 X
Range quality 99.9 %
Test CRC D89D9D2F
Copy CRC D89D9D2F
Copy OK

No errors occurred


AccurateRip summary

Track 1 cannot be verified as accurate (confidence 1) [961E9092], AccurateRip returned [83049FBC] (AR v2)
Track 2 cannot be verified as accurate (confidence 1) [DA19FF11], AccurateRip returned [F48DD1E9] (AR v2)
Track 3 cannot be verified as accurate (confidence 1) [2838B575], AccurateRip returned [9866590D] (AR v2)
Track 4 cannot be verified as accurate (confidence 1) [70BC9604], AccurateRip returned [41BCB019] (AR v2)
Track 5 cannot be verified as accurate (confidence 1) 65172C4, AccurateRip returned [E13B29FF] (AR v2)

No tracks could be verified as accurate
You may have a different pressing from the one(s) in the database

End of status report

==== Log checksum 032D55C9CDF14F887D38095E6697FD2FB3E344ECCED2C273A10C42C2E4C90C02 ====

Produced by Page Porrazzo & Shonen Knife
Recorded in Osaka, Japan, except "5" at Kilburn National Ballroom, London.

* Naoko Yamano - guitars, vocals
* Michie Nakatani - bass, keys, vocals
* Atsuko Yamano - drums, vocals

Release Date: March 2, 1994
Label: MCA Victor, Inc.
Catalog No.: MVCD-17001
DOWNLOAD LINKS:
Buy Premium To Support Me & Get Resumable Support & Max Speed


Links are Interchangeable - No Password - Single Extraction

 
 
 
Dear visitor, you went to the site as an unregistered user. We encourage you to register or enter the site under your name.
 
   
 
 (Votes #: 0)