2013Zone For Latest Downloads

 
     
 
Legal Downloads » Music » Pagan's Mind - Full Circle (2015) 2Disc [BDRip 1080p]
Menu
Home Applications
Games Movies
Music TV Shows
Torrents Graphics

Sitemap

RSS
 
Advanced Search
Last News
Site Info
Top Contributors:
  1    supper88 32766
  2    admin 32651
  3    Whisky 10080
  4    Shark_ 8911
  5    creativelivenew 8706
  6    whathesupa 2799
  7    candymypost 840
  8    hvnteam 629
  9    vuong87 3


Articles:
  This Hour: 0
  Today: 0
  This Month: 13
  All Time: 515682


Torrents:
  Today: 0
  Yesterday: 0
  All Time: 156685


Membership:
  Registered Today :0
  This Hour:0
  This Month:0
  Total:14
  Banned:1

{online}
{inform_torrent}
Friend:
We Recomend
Trend
Trend
onlinemovies

Search In Site

Music : Pagan's Mind - Full Circle (2015) 2Disc [BDRip 1080p]
 
http://i66.fastpic.ru/big/2015/1118/27/50c6504d19ef750dc3c90de5bf75e027.jpg

Pagan's Mind - Full Circle (2015)
BDRip 1080p | MKV | Disc 1: 8615 kbps, 1920x1080 (16:9) at 29.970 fps, AVC ([email protected]) | 5.46 GB
Audio: 1509 kbps, 48 khz, 24 bits, 6 channels, DTS | Length: 01:17:00
Disc 2: 8376 kbps, 1920x1080 (16:9) at 29.970 fps, AVC ([email protected]) | 5.45 GB
Audio: 1509 kbps, 48 khz, 24 bits, 6 channels, DTS | Length: 01:19:00
Genre: Progressive Metal | Nitroflare/Uploadable/Filefactory

"An early highlight in Pagan's Mind's career was playing the ProgPower USA festival in 2003, the American edition of what many consider to be the best niche festival in the world. Hard on the heels of the release of Celestial Entrance (their sophomore release), the praise they received in Atlanta was unlike anything the band had ever experienced before.
Pagan's Mind played the festival again in 2007 (also appearing as the house band for the legendary «All Star Jam»), and in 2009 returned for the festival's 10 Year Anniversary under the moniker «Returning Heroes».
On September 11th 2014, another historical performance took place at Center Stage, featuring «Celestial Entrance» in its entirety plus an additional set of «True Norwegian Hard-Hitting In-Your-Face Space Metal», including the instrumental piece «Full Circle». It is this piece which comprises the theme of the show you are about to witness."


http://i67.fastpic.ru/big/2015/1118/25/8fa25a60414302a4f8d31a4f0ab92e25.jpg

http://i73.fastpic.ru/big/2015/1118/b9/3e348456a891667654e6cd2064f63fb9.jpg


Track Listing

Set 1:
1. Approaching
2. Through Osiris Eyes
3. Entrance Stargate
4. Of Epic Questions
5. Dimensions Of Fire
6. Dreamscape Lucidity
7. The Seven Sacred Promises
8. Back To The Magic Of Childhood I: Conception
9. Back To The Magic Of Childhood II: Exploring Life
10. In Brilliant White Light
11. Aegean Shores
12. The Prophecy Of Pleiades

General
Unique ID
: 247897732773870012029793103347627238166 (0xBA7F5DDE0D3C8F988618EAADFD52A316)
Complete name : C:\Users\ggu\Desktop\ggu\Pagans.Mind.Full.Circle.First.Set.2015.1080p.MBluRay.x264-FKKHD\first-pmfcfs-1080p.mkv
Format
: Matroska
Format version : Version 4 / Version 2
File size
: 5.46 GiB
Duration
: 1h 17mn
Overall bit rate : 10.1 Mbps
Encoded date : UTC 2015-11-15 08:03:56
Writing application

: mkvmerge v7.1.0 ('Good Love') 64bit built on Jul 27 2014 13:06:55
Writing library : libebml v1.3.0 + libmatroska v1.4.1
DURATION
: 01:17:09.462000000
NUMBER_OF_FRAMES : 434012
NUMBER_OF_BYTES : 873232144
_STATISTICS_WRITING_APP : mkvmerge v7.1.0 ('Good Love') 64bit built on Jul 27 2014 13:06:55
_STATISTICS_WRITING_DATE_UTC : 2015-11-15 08:03:56
_STATISTICS_TAGS : BPS DURATION NUMBER_OF_FRAMES NUMBER_OF_BYTES

Video
ID : 1
Format
: AVC
Format/Info
: Advanced Video Codec
Format profile : [email protected]
Format settings, CABAC : Yes
Format settings, ReFrames : 4 frames
Codec ID
: V_MPEG4/ISO/AVC
Duration
: 1h 17mn
Bit rate
: 8 615 Kbps
Width
: 1 920 pixels
Height
: 1 080 pixels
Display aspect ratio : 16:9
Frame rate mode : Constant
Frame rate
: 29.970 fps
Color space
: YUV
Chroma subsampling

: 4:2:0
Bit depth
: 8 bits
Scan type
: Progressive
Bits/(Pixel*Frame)

: 0.139
Stream size
: 4.54 GiB (83%)
Writing library : x264 core 148 r2638 7599210
Encoding settings: cabac=1 / ref=4 / deblock=1:0:0 / analyse=0x3:0x113 / me=umh / subme=8 / psy=1 / psy_rd=1.00:0.00 / mixed_ref=1 / me_range=16 / chroma_me=1 / trellis=1 / 8x8dct=1 / cqm=0 / deadzone=21,11 / fast_pskip=0 / chroma_qp_offset=-2 / threads=12 / lookahead_threads=2 / sliced_threads=0 / nr=0 / decimate=1 / interlaced=0 / bluray_compat=0 / constrained_intra=0 / bframes=3 / b_pyramid=2 / b_adapt=2 / b_bias=0 / direct=3 / weightb=1 / open_gop=0 / weightp=2 / keyint=250 / keyint_min=25 / scenecut=40 / intra_refresh=0 / rc_lookahead=50 / rc=2pass / mbtree=1 / bitrate=8615 / ratetol=1.0 / qcomp=0.60 / qpmin=0 / qpmax=69 / qpstep=4 / cplxblur=20.0 / qblur=0.5 / ip_ratio=1.40 / aq=1:1.00
Language
: English
Default
: Yes
Forced
: No
DURATION
: 01:17:09.491000000
NUMBER_OF_FRAMES : 138746
NUMBER_OF_BYTES : 4985540325
_STATISTICS_WRITING_APP : mkvmerge v7.1.0 ('Good Love') 64bit built on Jul 27 2014 13:06:55
_STATISTICS_WRITING_DATE_UTC : 2015-11-15 08:03:56
_STATISTICS_TAGS : BPS DURATION NUMBER_OF_FRAMES NUMBER_OF_BYTES

Audio
ID : 2
Format
: DTS
Format/Info
: Digital Theater Systems
Mode
: 16
Format settings, Endianness : Big
Codec ID
: A_DTS
Duration
: 1h 17mn
Bit rate mode : Constant
Bit rate
: 1 509 Kbps
Channel(s)
: 6 channels
Channel positions: Front: L C R, Side: L R, LFE
Sampling rate : 48.0 KHz
Bit depth
: 24 bits
Compression mode : Lossy
Stream size
: 833 MiB (15%)
Language
: English
Default
: Yes
Forced
: No

Menu
00:00:00.000 : en:00:00:00.000
00:01:54.748 : en:00:01:54.748
00:09:44.317 : en:00:09:44.317
00:15:56.722 : en:00:15:56.722
00:22:24.777 : en:00:22:24.777
00:30:24.289 : en:00:30:24.289
00:37:45.997 : en:00:37:45.997
00:44:37.441 : en:00:44:37.441
00:48:59.136 : en:00:48:59.136
00:58:00.877 : en:00:58:00.877
01:00:41.438 : en:01:00:41.438
01:07:00.984 : en:01:07:00.984

Set 2:
13. New World Order
14. Intermission
15. Enigmatic Mission
16. Live Your Life Like A Dream
17. Hallo Spaceboy
18. Full Circle
19. Walk Away In Silence
20. Eyes Of Fire
21. God's Equation
22. United Alliance

General
Unique ID
: 240876690480983412009428977594989499078 (0xB53729C1976DE8BFB5255CDD70F752C6)
Complete name : C:\Users\ggu\Desktop\ggu\Pagans.Mind.Full.Circle.Second.Set.2015.1080p.MBluRay.x264-FKKHD\pmfcss-1080p.mkv
Format
: Matroska
Format version : Version 4 / Version 2
File size
: 5.45 GiB
Duration
: 1h 19mn
Overall bit rate : 9 868 Kbps
Encoded date : UTC 2015-11-15 02:39:51
Writing application

: mkvmerge v7.1.0 ('Good Love') 64bit built on Jul 27 2014 13:06:55
Writing library : libebml v1.3.0 + libmatroska v1.4.1
DURATION
: 01:19:01.547000000
NUMBER_OF_FRAMES : 444520
NUMBER_OF_BYTES : 894374240
_STATISTICS_WRITING_APP : mkvmerge v7.1.0 ('Good Love') 64bit built on Jul 27 2014 13:06:55
_STATISTICS_WRITING_DATE_UTC : 2015-11-15 02:39:51
_STATISTICS_TAGS : BPS DURATION NUMBER_OF_FRAMES NUMBER_OF_BYTES

Video
ID : 1
Format
: AVC
Format/Info
: Advanced Video Codec
Format profile : [email protected]
Format settings, CABAC : Yes
Format settings, ReFrames : 4 frames
Codec ID
: V_MPEG4/ISO/AVC
Duration
: 1h 19mn
Bit rate
: 8 376 Kbps
Width
: 1 920 pixels
Height
: 1 080 pixels
Display aspect ratio : 16:9
Frame rate mode : Constant
Frame rate
: 29.970 fps
Color space
: YUV
Chroma subsampling

: 4:2:0
Bit depth
: 8 bits
Scan type
: Progressive
Bits/(Pixel*Frame)

: 0.135
Stream size
: 4.51 GiB (83%)
Writing library : x264 core 148 r2638 7599210
Encoding settings: cabac=1 / ref=4 / deblock=1:0:0 / analyse=0x3:0x113 / me=umh / subme=8 / psy=1 / psy_rd=1.00:0.00 / mixed_ref=1 / me_range=16 / chroma_me=1 / trellis=1 / 8x8dct=1 / cqm=0 / deadzone=21,11 / fast_pskip=0 / chroma_qp_offset=-2 / threads=12 / lookahead_threads=2 / sliced_threads=0 / nr=0 / decimate=1 / interlaced=0 / bluray_compat=0 / constrained_intra=0 / bframes=3 / b_pyramid=2 / b_adapt=2 / b_bias=0 / direct=3 / weightb=1 / open_gop=0 / weightp=2 / keyint=250 / keyint_min=25 / scenecut=40 / intra_refresh=0 / rc_lookahead=50 / rc=2pass / mbtree=1 / bitrate=8376 / ratetol=1.0 / qcomp=0.60 / qpmin=0 / qpmax=69 / qpstep=4 / cplxblur=20.0 / qblur=0.5 / ip_ratio=1.40 / aq=1:1.00
Language
: English
Default
: Yes
Forced
: No
DURATION
: 01:19:01.570000000
NUMBER_OF_FRAMES : 142105
NUMBER_OF_BYTES : 4952675375
_STATISTICS_WRITING_APP : mkvmerge v7.1.0 ('Good Love') 64bit built on Jul 27 2014 13:06:55
_STATISTICS_WRITING_DATE_UTC : 2015-11-15 02:39:51
_STATISTICS_TAGS : BPS DURATION NUMBER_OF_FRAMES NUMBER_OF_BYTES

Audio
ID : 2
Format
: DTS
Format/Info
: Digital Theater Systems
Mode
: 16
Format settings, Endianness : Big
Codec ID
: A_DTS
Duration
: 1h 19mn
Bit rate mode : Constant
Bit rate
: 1 509 Kbps
Channel(s)
: 6 channels
Channel positions: Front: L C R, Side: L R, LFE
Sampling rate : 48.0 KHz
Bit depth
: 24 bits
Compression mode : Lossy
Stream size
: 853 MiB (15%)
Language
: English
Default
: Yes
Forced
: No

Menu
00:00:00.000 : en:00:00:00.000
00:09:25.131 : en:00:09:25.131
00:15:31.364 : en:00:15:31.364
00:21:03.462 : en:00:21:03.462
00:27:11.763 : en:00:27:11.763
00:33:03.481 : en:00:33:03.481
00:49:05.810 : en:00:49:05.810
00:55:05.669 : en:00:55:05.669
01:01:21.745 : en:01:01:21.745
01:10:08.604 : en:01:10:08.604
01:16:35.958 : en:01:16:35.958

Thanks to the original uploader
DOWNLOAD LINKS:
Buy Premium To Support Me & Get Resumable Support & Max Speed

Uploaded.net:
7wmr9.firstpmfcfs1080p.part01.rar
7wmr9.firstpmfcfs1080p.part02.rar
7wmr9.firstpmfcfs1080p.part03.rar
7wmr9.firstpmfcfs1080p.part04.rar
7wmr9.firstpmfcfs1080p.part05.rar
7wmr9.firstpmfcfs1080p.part06.rar
7wmr9.firstpmfcfs1080p.part07.rar
7wmr9.firstpmfcfs1080p.part08.rar
7wmr9.firstpmfcfs1080p.part09.rar
7wmr9.pmfcss1080p.part01.rar
7wmr9.pmfcss1080p.part02.rar
7wmr9.pmfcss1080p.part03.rar
7wmr9.pmfcss1080p.part04.rar
7wmr9.pmfcss1080p.part05.rar
7wmr9.pmfcss1080p.part06.rar
7wmr9.pmfcss1080p.part07.rar
7wmr9.pmfcss1080p.part08.rar
7wmr9.pmfcss1080p.part09.rar

Rapidgator.net:
7wmr9.firstpmfcfs1080p.part01.rar.html
7wmr9.firstpmfcfs1080p.part02.rar.html
7wmr9.firstpmfcfs1080p.part03.rar.html
7wmr9.firstpmfcfs1080p.part04.rar.html
7wmr9.firstpmfcfs1080p.part05.rar.html
7wmr9.firstpmfcfs1080p.part06.rar.html
7wmr9.firstpmfcfs1080p.part07.rar.html
7wmr9.firstpmfcfs1080p.part08.rar.html
7wmr9.firstpmfcfs1080p.part09.rar.html
7wmr9.pmfcss1080p.part01.rar.html
7wmr9.pmfcss1080p.part02.rar.html
7wmr9.pmfcss1080p.part03.rar.html
7wmr9.pmfcss1080p.part04.rar.html
7wmr9.pmfcss1080p.part05.rar.html
7wmr9.pmfcss1080p.part06.rar.html
7wmr9.pmfcss1080p.part07.rar.html
7wmr9.pmfcss1080p.part08.rar.html
7wmr9.pmfcss1080p.part09.rar.html

UploadRocket.net:
7wmr9.firstpmfcfs1080p.part01.rar.html
7wmr9.firstpmfcfs1080p.part02.rar.html
7wmr9.firstpmfcfs1080p.part03.rar.html
7wmr9.firstpmfcfs1080p.part04.rar.html
7wmr9.firstpmfcfs1080p.part05.rar.html
7wmr9.firstpmfcfs1080p.part06.rar.html
7wmr9.firstpmfcfs1080p.part07.rar.html
7wmr9.firstpmfcfs1080p.part08.rar.html
7wmr9.firstpmfcfs1080p.part09.rar.html
7wmr9.pmfcss1080p.part01.rar.html
7wmr9.pmfcss1080p.part02.rar.html
7wmr9.pmfcss1080p.part03.rar.html
7wmr9.pmfcss1080p.part04.rar.html
7wmr9.pmfcss1080p.part05.rar.html
7wmr9.pmfcss1080p.part06.rar.html
7wmr9.pmfcss1080p.part07.rar.html
7wmr9.pmfcss1080p.part08.rar.html
7wmr9.pmfcss1080p.part09.rar.html

Links are Interchangeable - No Password - Single Extraction

 
 
 
Dear visitor, you went to the site as an unregistered user. We encourage you to register or enter the site under your name.
 
   
 
 (Votes #: 0)