2013Zone For Latest Downloads

 
     
 
Legal Downloads » Music » Nikita Magaloff - Haydn, Mozart, Schubert (1989)
Menu
Home Applications
Games Movies
Music TV Shows
Torrents Graphics

Sitemap

RSS
 
Advanced Search
Last News
Site Info
Top Contributors:
  1    supper88 32766
  2    admin 32651
  3    Whisky 10080
  4    Shark_ 8911
  5    creativelivenew 8706
  6    whathesupa 2799
  7    candymypost 840
  8    hvnteam 629
  9    vuong87 3


Articles:
  This Hour: 0
  Today: 0
  This Month: 0
  All Time: 515681


Torrents:
  Today: 0
  Yesterday: 0
  All Time: 156685


Membership:
  Registered Today :0
  This Hour:0
  This Month:0
  Total:14
  Banned:1

{online}
{inform_torrent}
Friend:
We Recomend
Trend
Trend
onlinemovies

Search In Site

Music : Nikita Magaloff - Haydn, Mozart, Schubert (1989)
 
http://i75.fastpic.ru/big/2015/1118/f9/3113db3d93bf452abdc85d5b7ea1e3f9.jpg

Nikita Magaloff - Haydn, Mozart, Schubert (1989)
Classisal/1st Viennese School/Romantic | FLAC lossless | cuesheets+log | covers+booklet | 62m11s | 234mb
Label: Montaigne | cat. no. MAG 8931

How nervous can one get when ripping a borrowed cd...the user who requested this album said only one website offered it for sale at a price which you wouldn't believe if I told you; the cd is extremely rare. Suffice it to say that if indeed it is worth that much, I could pay more than a month's rent with it. And I am not living in a tent.
Thankfully, EAC made a flawless rip.

"Nikita Magaloff was born in Saint Petersburg to a Georgian noble family named Maghalashvili. Magaloff and his family left Russia in 1918 for Finland. His musical interest first stimulated by family friend Serge Prokofiev, he studied with Alexander Siloti before going to Paris, where he studied with Isidor Philipp, chair of the piano department at the Paris Conservatory. He numbered Ravel among his friends there, who, when he graduated in 1929, said 'In Magaloff a great, a truly extraordinary musician is born.'
In 1949 he took over his friend and colleague Dinu Lipatti's master class at the Geneva Conservatory after Lipatti became too ill to teach (Lipatti died the following year at age 33). Magaloff continued regular teaching until 1960, when the demands of his concert career took priority, and he toured in the United States, South America, Japan, Israel, South Africa, and throughout Europe including Russia and Scandinavia. He still gave occasional master-classes, and took part in juries at international piano concours. Among his many pupils were the pianists Martha Argerich, Maria Tipo, Ingrid Haebler and Valery Sigalevitch, and the organist Lionel Rogg.
Nikita Magaloff was married to Irene, the daughter of the violinist Joseph Szigeti with whom he had established his international reputation in concerts before the war interrupted his career. He died in Vevey, Switzerland on 26 December 1992."


Tracks:

01. Haydn, Sonate en fa majeur Hob.XVI.23 - I. Allegro [0:06:48.96]
02. Haydn, Sonate en fa majeur Hob.XVI.23 - II. Larghetto [0:03:28.46]
03. Haydn, Sonate en fa majeur Hob.XVI.23 - III. Finale [0:02:22.77]
04. Mozart, Sonate en si bémol majeur K.281 - I. Allegro [0:04:35.73]
05. Mozart, Sonate en si bémol majeur K.281 - II. Andante amoroso [0:03:53.20]
06. Mozart, Sonate en si bémol majeur K.281 - III. Rondo [0:04:15.40]
07. Schubert, Sonate en la majeur D.959 - I. Allegro [0:13:34.73]
08. Schubert, Sonate en la majeur D.959 - II. Andantino [0:07:16.06]
09. Schubert, Sonate en la majeur D.959 - III. Scherzo [0:04:26.22]
10. Schubert, Sonate en la majeur D.959 - IV. Rondo allegretto [0:11:34.40]

Performer:

Ninita Magaloff - piano

Exact Audio Copy V1.0 beta 3 from 29. August 2011

EAC extraction logfile from 17. November 2015, 14:01

Nikita Magaloff / Haydn, Mozart & Schubert

Used drive : TSSTcorpCDDVDW SH-216AB Adapter: 0 ID: 0

Read mode : Secure
Utilize accurate stream : Yes
Defeat audio cache : Yes
Make use of C2 pointers : No

Read offset correction

: 6
Overread into Lead-In and Lead-Out : No
Fill up missing offset samples with silence : Yes
Delete leading and trailing silent blocks : No
Null samples used in CRC calculations : Yes
Used interface
: Native Win32 interface for Win NT & 2000

Used output format : User Defined Encoder
Selected bitrate : 768 kBit/s
Quality : High
Add ID3 tag : No
Command line compressor : C:\Program Files (x86)\FLAC Frontend\tools\flac.exe
Additional command line options : -8 -V -T "ARTIST=%artist%" -T "TITLE=%title%" -T "ALBUM=%albumtitle%" -T "DATE=%year%" -T "TRACKNUMBER=%tracknr%" -T "GENRE=%genre%" -T "PERFORMER=%albuminterpret%" -T "COMPOSER=%composer%" %haslyrics%--tag-from-file=LYRICS="%lyricsfile%"%haslyrics% -T "ALBUMARTIST=%albumartist%" -T "DISCNUMBER=%cdnumber%" -T "TOTALDISCS=%totalcds%" -T "TOTALTRACKS=%numtracks%" -T "COMMENT=%comment%" %source% -o %dest%

TOC of the extracted CD Track | Start | Length | Start sector | End sector
--1 | 0:00.33 | 6:48.72 | 33 | 30704 2 | 6:49.30 | 3:28.35 | 30705 | 46339 3 | 10:17.65 | 2:22.58 | 46340 | 57047 4 | 12:40.48 | 4:35.55 | 57048 | 77727 5 | 17:16.28 | 3:53.15 | 77728 | 95217 6 | 21:09.43 | 4:15.30 | 95218 | 114372 7 | 25:24.73 | 13:34.55 | 114373 | 175477 8 | 38:59.53 | 7:16.05 | 175478 | 208182 9 | 46:15.58 | 4:26.17 | 208183 | 228149
10 | 50:42.00 | 11:34.30 | 228150 | 280229

Range status and errors

Selected range Filename H:\Users\astarte\03. POST\magaloff\Nikita Magaloff - Haydn, Mozart & Schubert.wav Peak level 52.5 %
Extraction speed 3.1 X
Range quality 100.0 %
Copy CRC CB84E284
Copy OK

No errors occurred


AccurateRip summary

Track 1 accurately ripped (confidence 1) [A86D7E3E] (AR v2)
Track 2 accurately ripped (confidence 1) [6CF9123A] (AR v2)
Track 3 accurately ripped (confidence 1) [84CA76B3] (AR v2)
Track 4 accurately ripped (confidence 1) [7386309D] (AR v2)
Track 5 accurately ripped (confidence 1) [5C5F3637] (AR v2)
Track 6 accurately ripped (confidence 1) [2EE2BAE6] (AR v2)
Track 7 accurately ripped (confidence 1) [9AC796CC] (AR v2)
Track 8 accurately ripped (confidence 1) [81C63F1C] (AR v2)
Track 9 accurately ripped (confidence 1) [8BF0A967] (AR v2)
Track 10 cannot be verified as accurate (confidence 1) [A3F19993], AccurateRip returned [68054B5B] (AR v2)

9 track(s) accurately ripped
1 track(s) could not be verified as accurate

Some tracks could not be verified as accurate

End of status report

==== Log checksum 20F4A0390342F04FC7C6F5AF1BC025E5892F7C47408CDF659EC7D2D995BA724A ====
DOWNLOAD LINKS:
Buy Premium To Support Me & Get Resumable Support & Max Speed


Links are Interchangeable - No Password - Single Extraction

 
 
 
Dear visitor, you went to the site as an unregistered user. We encourage you to register or enter the site under your name.
 
   
 
 (Votes #: 0)