2013Zone For Latest Downloads

 
     
 
Legal Downloads » Music » Beastie Boys - Nessie's Revenge (1999)
Menu
Home Applications
Games Movies
Music TV Shows
Torrents Graphics

Sitemap

RSS
 
Advanced Search
Last News
Site Info
Top Contributors:
  1    supper88 32766
  2    admin 32651
  3    Whisky 10080
  4    Shark_ 8911
  5    creativelivenew 8706
  6    whathesupa 2799
  7    candymypost 840
  8    hvnteam 629
  9    vuong87 3


Articles:
  This Hour: 0
  Today: 0
  This Month: 13
  All Time: 515682


Torrents:
  Today: 0
  Yesterday: 0
  All Time: 156685


Membership:
  Registered Today :0
  This Hour:0
  This Month:0
  Total:14
  Banned:1

{online}
{inform_torrent}
Friend:
We Recomend
Trend
Trend
onlinemovies

Search In Site

Music : Beastie Boys - Nessie's Revenge (1999)
 
http://i73.fastpic.ru/big/2015/1118/cf/2eb20e16962a71d0a47c872cb2b656cf.jpg

Beastie Boys - Nessie's Revenge (1999)
EAC Rip | FLAC with CUE and log | scan | 272 mb
MP3 CBR 320kbps | RAR | 96 mb
Genre: hip-hop, punk, hardcore, soul, funk

Nessie's Revenge is a 1999 bootleg CD by the Beastie Boys. It is from a show in Glasgow, Scotland at the SECC on 3 May, 1999 as part of an MTV broadcast.
1. Mix Master Mike
2. Super Disco Breakin'
3. Flute Loop
4. Root Down
5. Shake Your Rump
6. Time For Livin'
7. Sabrosa
8. Sure Shot
9. 3 MC's & 1 DJ
10. Something's Got To Give
11. Time To Get Ill
12. So Whatcha Want
13. Heart Attack Man
14. Remote Control
15. Body Movin'
16. Intergalactic

Exact Audio Copy V1.1 from 23. June 2015

EAC extraction logfile from 15. November 2015, 22:37

Beastie Boys / Nessie's Revenge

Used drive : TEAC DVD-ROM DV-28SW Adapter: 1 ID: 0

Read mode : Secure
Utilize accurate stream : Yes
Defeat audio cache : Yes
Make use of C2 pointers : No

Read offset correction

: 6
Overread into Lead-In and Lead-Out : No
Fill up missing offset samples with silence : Yes
Delete leading and trailing silent blocks : No
Null samples used in CRC calculations : Yes
Used interface
: Native Win32 interface for Win NT & 2000
Gap handling
: Left out

Used output format : Internal WAV Routines
Sample format : 44.100 Hz; 16 Bit; Stereo

TOC of the extracted CD Track | Start | Length | Start sector | End sector
--1 | 0:00.00 | 2:00.01 | 0 | 9000 2 | 2:00.01 | 2:03.19 | 9001 | 18244 3 | 4:03.20 | 1:29.68 | 18245 | 24987 4 | 5:33.13 | 3:15.03 | 24988 | 39615 5 | 8:48.16 | 2:49.22 | 39616 | 52312 6 | 11:37.38 | 1:46.66 | 52313 | 60328 7 | 13:24.29 | 3:13.17 | 60329 | 74820 8 | 16:37.46 | 2:09.18 | 74821 | 84513 9 | 18:46.64 | 3:28.71 | 84514 | 100184
10 | 22:15.60 | 3:46.54 | 100185 | 117188
11 | 26:02.39 | 3:21.56 | 117189 | 132319
12 | 29:24.20 | 3:03.32 | 132320 | 146076
13 | 32:27.52 | 1:08.37 | 146077 | 151213
14 | 33:36.14 | 3:34.18 | 151214 | 167281
15 | 37:10.32 | 2:54.50 | 167282 | 180381
16 | 40:05.07 | 2:58.01 | 180382 | 193732

Track 1 Filename C:\My Documents\My FLAC\Beastie Boys - Nessie's Revenge (1999) [FLAC]\01 - Mix Master Mike.wav Pre-gap length 0:00:02.00 Peak level 96.0 %
Extraction speed 2.4 X
Track quality 100.0 %
Test CRC BF3FF8AE
Copy CRC BF3FF8AE
Track not present in AccurateRip database
Copy OK

Track 2 Filename C:\My Documents\My FLAC\Beastie Boys - Nessie's Revenge (1999) [FLAC]\02 - Super Disco Breakin'.wav Peak level 88.1 %
Extraction speed 2.5 X
Track quality 100.0 %
Test CRC E41254E3
Copy CRC E41254E3
Track not present in AccurateRip database
Copy OK

Track 3 Filename C:\My Documents\My FLAC\Beastie Boys - Nessie's Revenge (1999) [FLAC]\03 - Flute Loop.wav Peak level 90.4 %
Extraction speed 2.4 X
Track quality 100.0 %
Test CRC CD22ED48
Copy CRC CD22ED48
Track not present in AccurateRip database
Copy OK

Track 4 Filename C:\My Documents\My FLAC\Beastie Boys - Nessie's Revenge (1999) [FLAC]\04 - Root Down.wav Peak level 100.0 %
Extraction speed 3.0 X
Track quality 100.0 %
Test CRC FCBA98F0
Copy CRC FCBA98F0
Track not present in AccurateRip database
Copy OK

Track 5 Filename C:\My Documents\My FLAC\Beastie Boys - Nessie's Revenge (1999) [FLAC]\05 - Shake Your Rump.wav Peak level 100.0 %
Extraction speed 2.5 X
Track quality 99.9 %
Test CRC 25714D4A
Copy CRC 25714D4A
Track not present in AccurateRip database
Copy OK

Track 6 Filename C:\My Documents\My FLAC\Beastie Boys - Nessie's Revenge (1999) [FLAC]\06 - Time For Livin'.wav Peak level 93.0 %
Extraction speed 2.1 X
Track quality 99.9 %
Test CRC 08C7DA70
Copy CRC 08C7DA70
Track not present in AccurateRip database
Copy OK

Track 7 Filename C:\My Documents\My FLAC\Beastie Boys - Nessie's Revenge (1999) [FLAC]\07 - Sabrosa.wav Peak level 100.0 %
Extraction speed 2.8 X
Track quality 99.9 %
Test CRC 904532E0
Copy CRC 904532E0
Track not present in AccurateRip database
Copy OK

Track 8 Filename C:\My Documents\My FLAC\Beastie Boys - Nessie's Revenge (1999) [FLAC]\08 - Sure Shot.wav Peak level 91.1 %
Extraction speed 3.3 X
Track quality 100.0 %
Test CRC 56ADF01F
Copy CRC 56ADF01F
Track not present in AccurateRip database
Copy OK

Track 9 Filename C:\My Documents\My FLAC\Beastie Boys - Nessie's Revenge (1999) [FLAC]\09 - 3 MC's & 1 DJ.wav Peak level 99.3 %
Extraction speed 3.8 X
Track quality 100.0 %
Test CRC 068D2E2F
Copy CRC 068D2E2F
Track not present in AccurateRip database
Copy OK

Track 10 Filename C:\My Documents\My FLAC\Beastie Boys - Nessie's Revenge (1999) [FLAC]\10 - Something's Got To Give.wav Peak level 100.0 %
Extraction speed 3.3 X
Track quality 99.9 %
Test CRC 3DE9AF55
Copy CRC 3DE9AF55
Track not present in AccurateRip database
Copy OK

Track 11 Filename C:\My Documents\My FLAC\Beastie Boys - Nessie's Revenge (1999) [FLAC]\11 - Time To Get Ill.wav Peak level 99.6 %
Extraction speed 4.1 X
Track quality 100.0 %
Test CRC 30141749
Copy CRC 30141749
Track not present in AccurateRip database
Copy OK

Track 12 Filename C:\My Documents\My FLAC\Beastie Boys - Nessie's Revenge (1999) [FLAC]\12 - So Whatcha Want.wav Peak level 98.8 %
Extraction speed 4.2 X
Track quality 100.0 %
Test CRC 4B415581
Copy CRC 4B415581
Track not present in AccurateRip database
Copy OK

Track 13 Filename C:\My Documents\My FLAC\Beastie Boys - Nessie's Revenge (1999) [FLAC]\13 - Heart Attack Man.wav Peak level 96.0 %
Extraction speed 3.3 X
Track quality 100.0 %
Test CRC F45A0F26
Copy CRC F45A0F26
Track not present in AccurateRip database
Copy OK

Track 14 Filename C:\My Documents\My FLAC\Beastie Boys - Nessie's Revenge (1999) [FLAC]\14 - Remove Control.wav Peak level 96.3 %
Extraction speed 4.4 X
Track quality 100.0 %
Test CRC 22851729
Copy CRC 22851729
Track not present in AccurateRip database
Copy OK

Track 15 Filename C:\My Documents\My FLAC\Beastie Boys - Nessie's Revenge (1999) [FLAC]\15 - Body Movin'.wav Peak level 100.0 %
Extraction speed 4.4 X
Track quality 100.0 %
Test CRC 2F65F5C6
Copy CRC 2F65F5C6
Track not present in AccurateRip database
Copy OK

Track 16 Filename C:\My Documents\My FLAC\Beastie Boys - Nessie's Revenge (1999) [FLAC]\16 - Intergalactic.wav Peak level 100.0 %
Extraction speed 4.6 X
Track quality 100.0 %
Test CRC 01F8B9A3
Copy CRC 01F8B9A3
Track not present in AccurateRip database
Copy OK

None of the tracks are present in the AccurateRip database

No errors occurred

End of status report

- CUETools DB Plugin V2.1.6

[CTDB TOCID: pNrAte2atXjmGQ0vUdfEV9iuFEM-] disk not present in database
Submit result: pNrAte2atXjmGQ0vUdfEV9iuFEM- has been uploaded

==== Log checksum FE3558B0C65A39B102733ED685157FCEFFA45FD390BC37DBA581BF249C71B529 ====
DOWNLOAD LINKS:
Buy Premium To Support Me & Get Resumable Support & Max Speed


Links are Interchangeable - No Password - Single Extraction

 
 
 
Dear visitor, you went to the site as an unregistered user. We encourage you to register or enter the site under your name.
 
   
 
 (Votes #: 0)