2013Zone For Latest Downloads

 
     
 
Legal Downloads » Music » Casablanca - Apocalyptic Youth (2012)
Menu
Home Applications
Games Movies
Music TV Shows
Torrents Graphics

Sitemap

RSS
 
Advanced Search
Last News
Site Info
Top Contributors:
  1    supper88 32766
  2    admin 32651
  3    Whisky 10080
  4    Shark_ 8911
  5    creativelivenew 8706
  6    whathesupa 2799
  7    candymypost 840
  8    hvnteam 629
  9    vuong87 3


Articles:
  This Hour: 0
  Today: 0
  This Month: 0
  All Time: 515681


Torrents:
  Today: 0
  Yesterday: 0
  All Time: 156685


Membership:
  Registered Today :0
  This Hour:0
  This Month:0
  Total:14
  Banned:1

{online}
{inform_torrent}
Friend:
We Recomend
Trend
Trend
onlinemovies

Search In Site

Music : Casablanca - Apocalyptic Youth (2012)
 
http://i65.fastpic.ru/big/2015/1118/42/207f0f822b11be8aec374b1a4e412642.jpg

Casablanca - Apocalyptic Youth (2012)
EAC Rip | FLAC (Img) + Cue + Log ~ 276 Mb | MP3 CBR320 ~ 85 Mb
Scans (JPG, 600 dpi) ~ 63 Mb | RAR 5% Recovery
Melodic Hard Rock | Rocket Songs #ROCKET008

"Casablanca is a Swedish rock band with members from several other famous groups: Josephine Forsman from the Sahara Hotnights (drums), Erik Stenemo from Melody Club (guitar), Anders Ljung from Space Age Baby Jane (vocals), Ryan Roxie from Roxy 77 (guitar) Mats Rubarth who previously played football in AIK (bass) and Erik Almström from Bullet (guitar). In the final of Melodifestivalen 2010 they performed with the 2009 winning song La voix along with 2009 winner Malena Ernman. Later in the year released the single Downtown. 2012 came the debut album Apocalyptic Youth, followed by the album Riding a Black Swan, 2013."

http://i67.fastpic.ru/big/2015/1118/07/18137a573fb9572f4a160ad7313f3207.jpg

Wiki | Discogs | All Music
***************

http://i75.fastpic.ru/big/2015/1118/d1/b10bf07ae5f7172a4b37acabb2abc2d1.jpg

Track List:

01. Apocalyptic Youth [03:31]
02. Deliberately Wasted [02:44]
03. Downtown [03:14]
04. The Juggler [03:46]
05. Rich Girl [03:55]
06. Love and Desperation [04:02]
07. Secret Agents of Lust [03:03]
08. Beast of Summer [03:09]
09. Last of the Rockstars [03:33]
10. A Lifetime on the Run [04:16]

Exact Audio Copy V1.0 beta 3 from 29. August 2011

EAC extraction logfile from 7. December 2013, 12:01

Casablanca / Apocalyptic Youth

Used drive : SlimtypeDVD A DS8A5SH Adapter: 0 ID: 1

Read mode : Secure
Utilize accurate stream : Yes
Defeat audio cache : Yes
Make use of C2 pointers : No

Read offset correction

: 6
Overread into Lead-In and Lead-Out : No
Fill up missing offset samples with silence : Yes
Delete leading and trailing silent blocks : No
Null samples used in CRC calculations : Yes
Used interface
: Native Win32 interface for Win NT & 2000

Used output format : User Defined Encoder
Selected bitrate : 320 kBit/s
Quality : High
Add ID3 tag : No
Command line compressor : C:\Program Files (x86)\Exact Audio Copy\Flac\flac.exe
Additional command line options : -V -8 -T "Date=%year%" -T "Genre=%genre%" %source%

TOC of the extracted CD Track | Start | Length | Start sector | End sector
--1 | 0:00.00 | 3:30.62 | 0 | 15811 2 | 3:30.62 | 2:43.47 | 15812 | 28083 3 | 6:14.34 | 3:13.10 | 28084 | 42568 4 | 9:27.44 | 3:45.35 | 42569 | 59478 5 | 13:13.04 | 3:54.44 | 59479 | 77072 6 | 17:07.48 | 4:01.60 | 77073 | 95207 7 | 21:09.33 | 3:02.16 | 95208 | 108873 8 | 24:11.49 | 3:08.39 | 108874 | 123012 9 | 27:20.13 | 3:32.15 | 123013 | 138927
10 | 30:52.28 | 4:15.57 | 138928 | 158109

Range status and errors

Selected range Filename D:\My Music\Casablanca - 2012 Apocalyptic Youth\Casablanca - Apocalyptic Youth.wav Peak level 100.0 %
Extraction speed 1.6 X
Range quality 100.0 %
Test CRC 87010030
Copy CRC 87010030
Copy OK

No errors occurred


AccurateRip summary

Track 1 accurately ripped (confidence 3) [F218240A] (AR v2)
Track 2 accurately ripped (confidence 3) [5676930C] (AR v2)
Track 3 accurately ripped (confidence 3) [A6E4CD30] (AR v2)
Track 4 accurately ripped (confidence 3) [E83C19BE] (AR v2)
Track 5 accurately ripped (confidence 3) [73ECD620] (AR v2)
Track 6 accurately ripped (confidence 3) [02FD5938] (AR v2)
Track 7 accurately ripped (confidence 3) [F39051D4] (AR v2)
Track 8 accurately ripped (confidence 3) [3B88785F] (AR v2)
Track 9 accurately ripped (confidence 3) [EDC763FD] (AR v2)
Track 10 accurately ripped (confidence 3) [EB5C55D3] (AR v2)

All tracks accurately ripped

End of status report

==== Log checksum D401809017615B30CF4A4ABDE4A513ECF05E5401E6B9529864CC49AD0FBE4391 ====

foobar2000 1.2.6 / Dynamic Range Meter 1.1.1
log date: 2015-11-16 18:28:55

Analyzed: Casablanca / Apocalyptic Youth

DR Peak RMS Duration Track

DR7 0.00 dB -7.50 dB 3:31 01-Apocalyptic Youth
DR7 0.00 dB -7.70 dB 2:44 02-Deliberately Wasted
DR7 0.00 dB -7.89 dB 3:13 03-Downtown
DR7 0.00 dB -8.23 dB 3:45 04-The Juggler
DR7 0.00 dB -8.14 dB 3:55 05-Rich Girl
DR6 0.00 dB -7.46 dB 4:02 06-Love and Desperation
DR6 0.00 dB -6.58 dB 3:02 07-Secret Agents of Lust
DR6 0.00 dB -6.95 dB 3:09 08-Beast of Summer
DR7 0.00 dB -7.67 dB 3:32 09-Last of the Rockstars
DR7 0.00 dB -8.04 dB 4:16 10-A Lifetime on the Run

Number of tracks: 10
Official DR value: DR7

Samplerate: 44100 Hz
Channels: 2
Bits per sample: 16
Bitrate: 1047 kbps
Codec: FLAC

[CUETools log; Date: 16.11.2015 18:28:57; Version: 2.1.5]
[CTDB TOCID: vrtjzPRxIAJx03GEyQkIxLeCpM8-] found.
Track | CTDB Status
1 | (1/1) Accurately ripped
2 | (1/1) Accurately ripped
3 | (1/1) Accurately ripped
4 | (1/1) Accurately ripped
5 | (1/1) Accurately ripped
6 | (1/1) Accurately ripped
7 | (1/1) Accurately ripped
8 | (1/1) Accurately ripped
9 | (1/1) Accurately ripped
10 | (1/1) Accurately ripped
[AccurateRip ID: 000ced2e-00680ce1-83083c0a] found.
Track [ CRC | V2 ] Status
01 [e387da5e|f218240a] (0+3/3) Accurately ripped
02 7ab1fc6|5676930c (0+3/3) Accurately ripped
03 [a4774868|a6e4cd30] (0+3/3) Accurately ripped
04 [9f8a1bf9|e83c19be] (0+3/3) Accurately ripped
05 [47cf2b54|73ecd620] (0+3/3) Accurately ripped
06 [6b758ff8|02fd5938] (0+3/3) Accurately ripped
07 [c92638e4|f39051d4] (0+3/3) Accurately ripped
08 [2abb66d4|3b88785f] (0+3/3) Accurately ripped
09 [48e201be|edc763fd] (0+3/3) Accurately ripped
10 [e97bc563|eb5c55d3] (0+3/3) Accurately ripped

Track Peak [ CRC32 ] [W/O NULL] [ LOG ]
-- 100,0 [87010030] [0AEC6F84] CRC32
01 100,0 [AEA01AD3] [CA225E3B]
02 100,0 [F029BA98] [CB2CAB73]
03 100,0 [F6226765] [555BCA1A]
04 100,0 [240D70D2] [6D1C12F6]
05 100,0 [30ACCDF4] [20AA646F]
06 100,0 [9FDAD43F] [431434F0]
07 100,0 [F0C93E8E] [45C1A7C1]
08 100,0 [194BBFB9] [75F00C37]
09 100,0 [3B73D5B8] F66210C
10 100,0 [79CD479F] [42DD4B16]

http://i65.fastpic.ru/big/2015/1118/8a/36e084fcfde39dcae02a68d6c369a18a.jpg

DOWNLOAD LINKS:
Buy Premium To Support Me & Get Resumable Support & Max Speed


Links are Interchangeable - No Password - Single Extraction

 
 
 
Dear visitor, you went to the site as an unregistered user. We encourage you to register or enter the site under your name.
 
   
 
 (Votes #: 0)