2013Zone For Latest Downloads

 
     
 
Legal Downloads » Music » Greg Adams - That's Life (2015) {Ripa Records}
Menu
Home Applications
Games Movies
Music TV Shows
Torrents Graphics

Sitemap

RSS
 
Advanced Search
Last News
Site Info
Top Contributors:
  1    supper88 32766
  2    admin 32693
  3    Whisky 10080
  4    Shark_ 8911
  5    creativelivenew 8706
  6    whathesupa 2799
  7    candymypost 840
  8    hvnteam 629
  9    vuong87 3


Articles:
  This Hour: 0
  Today: 0
  This Month: 10
  All Time: 515561


Torrents:
  Today: 0
  Yesterday: 0
  All Time: 156684


Membership:
  Registered Today :0
  This Hour:0
  This Month:0
  Total:14
  Banned:1

{online}
{inform_torrent}
Friend:
We Recomend
Trend
Trend
Ad1

Search In Site

Music : Greg Adams - That's Life (2015) {Ripa Records}
 
http://i67.fastpic.ru/big/2015/1118/1f/e6761e2938126e0526bd6c4677569f1f.jpg

Greg Adams - That's Life (2015) {Ripa Records}
EAC 1.1 | FLAC tracks level 8 | Cue+Log+M3U | Full Scans 300dpi | 358MB + 5% Recovery
Genre: Jazz-Funk, Smooth Jazz, Soul

"Jazz trumpeter Greg Adams, known by his work for Tower of Power, is now building a new monument with the formation East Bay Soul. Adams has recorded six solo albums, two releases with East Bay Soul and fourteen recordings as a founding member of Tower of Power. That's Life is his third album with the band."

Track List
01. Little Black Dress
02. Hush Hush
03. Come Together
04. Get Smart
05. Going In Circles
06. Didn't Wanna Do It
07. Grow Old With Me
08. Earth To Mars
09. Without You
10. Damned If You Do
11. Let's Stay Together

musicians
Greg Adams - trumpet, flugelhorn
Lee Thornburg - trumpet, trombone, flugelhorn, background vocals
Greg Vail - alto sax, flute, tenor sax
Johnnie Bamont - tenor and baritone saxes
Joey Navarro - keyboards, background vocals
Kay Tamatsuno - guitar
Dwayne Smith - bass
Herman Matthews - drums, background vocals
Johnny Sandoval - percussion, background vocals
Darryl Walker - vocals
Rhys Henson - trumpet
Peter Svensson - tenor sax
Lorenzo Bombacini - baritone sax
String Section

Produced by Greg Adams

Exact Audio Copy V1.1 from 23. June 2015

EAC extraction logfile from 16. November 2015, 19:58

Greg Adams / That's Life

Used drive : HL-DT-STDVDRAM GH20NS10 Adapter: 1 ID: 0

Read mode : Secure
Utilize accurate stream : Yes
Defeat audio cache : Yes
Make use of C2 pointers : No

Read offset correction

: 667
Overread into Lead-In and Lead-Out : No
Fill up missing offset samples with silence : Yes
Delete leading and trailing silent blocks : No
Null samples used in CRC calculations : Yes
Used interface
: Native Win32 interface for Win NT & 2000
Gap handling
: Appended to previous track

Used output format : User Defined Encoder
Selected bitrate : 1024 kBit/s
Quality : High
Add ID3 tag : No
Command line compressor : C:\Program Files\Exact Audio Copy\Flac\flac.exe
Additional command line options : -8 -V -T "ARTIST=%artist%" -T "TITLE=%title%" -T "ALBUM=%albumtitle%" -T "DATE=%year%" -T "TRACKNUMBER=%tracknr%" -T "TOTALTRACKS=%numtracks%" -T "GENRE=%genre%" -T "ALBUMARTIST=%albumartist%" -T "ALBUM ARTIST=%albumartist%" -T "COMMENT=EAC Secure Mode, Test & Copy, AccurateRip, FLAC -8" %source%

TOC of the extracted CD Track | Start | Length | Start sector | End sector
--1 | 0:00.00 | 4:11.28 | 0 | 18852 2 | 4:11.28 | 5:18.46 | 18853 | 42748 3 | 9:29.74 | 3:58.21 | 42749 | 60619 4 | 13:28.20 | 4:12.64 | 60620 | 79583 5 | 17:41.09 | 5:05.50 | 79584 | 102508 6 | 22:46.59 | 4:13.24 | 102509 | 121507 7 | 27:00.08 | 4:58.00 | 121508 | 143857 8 | 31:58.08 | 3:43.32 | 143858 | 160614 9 | 35:41.40 | 2:57.34 | 160615 | 173923
10 | 38:38.74 | 4:51.28 | 173924 | 195776
11 | 43:30.27 | 4:34.64 | 195777 | 216390

Track 1 Filename D:\Greg Adams - That's Life (2015) [FLAC]\01 - Little Black Dress.wav Pre-gap length 0:00:02.00 Peak level 89.1 %
Extraction speed 2.9 X
Track quality 100.0 %
Test CRC 58789307
Copy CRC 58789307
Track not present in AccurateRip database
Copy OK

Track 2 Filename D:\Greg Adams - That's Life (2015) [FLAC]\02 - Hush Hush.wav Pre-gap length 0:00:01.56 Peak level 89.1 %
Extraction speed 3.2 X
Track quality 100.0 %
Test CRC C95E3F7F
Copy CRC C95E3F7F
Track not present in AccurateRip database
Copy OK

Track 3 Filename D:\Greg Adams - That's Life (2015) [FLAC]\03 - Come Together.wav Pre-gap length 0:00:01.74 Peak level 89.1 %
Extraction speed 3.1 X
Track quality 100.0 %
Test CRC C6E9329B
Copy CRC C6E9329B
Track not present in AccurateRip database
Copy OK

Track 4 Filename D:\Greg Adams - That's Life (2015) [FLAC]\04 - Get Smart.wav Pre-gap length 0:00:01.52 Peak level 89.1 %
Extraction speed 3.4 X
Track quality 100.0 %
Test CRC 98F35B5F
Copy CRC 98F35B5F
Track not present in AccurateRip database
Copy OK

Track 5 Filename D:\Greg Adams - That's Life (2015) [FLAC]\05 - Going In Circles.wav Pre-gap length 0:00:01.74 Peak level 89.0 %
Extraction speed 3.9 X
Track quality 100.0 %
Test CRC A832C2F4
Copy CRC A832C2F4
Track not present in AccurateRip database
Copy OK

Track 6 Filename D:\Greg Adams - That's Life (2015) [FLAC]\06 - Didn't Wanna Do It.wav Pre-gap length 0:00:01.74 Peak level 89.1 %
Extraction speed 3.6 X
Track quality 99.9 %
Test CRC 18FE8057
Copy CRC 18FE8057
Track not present in AccurateRip database
Copy OK

Track 7 Filename D:\Greg Adams - That's Life (2015) [FLAC]\07 - Grow Old With Me.wav Pre-gap length 0:00:01.74 Peak level 89.1 %
Extraction speed 4.2 X
Track quality 100.0 %
Test CRC CDF095C3
Copy CRC CDF095C3
Track not present in AccurateRip database
Copy OK

Track 8 Filename D:\Greg Adams - That's Life (2015) [FLAC]\08 - Earth To Mars.wav Pre-gap length 0:00:01.74 Peak level 89.1 %
Extraction speed 3.8 X
Track quality 99.9 %
Test CRC D46077D7
Copy CRC D46077D7
Track not present in AccurateRip database
Copy OK

Track 9 Filename D:\Greg Adams - That's Life (2015) [FLAC]\09 - Without You.wav Pre-gap length 0:00:03.18 Peak level 89.1 %
Extraction speed 3.6 X
Track quality 100.0 %
Test CRC 40E51EAA
Copy CRC 40E51EAA
Track not present in AccurateRip database
Copy OK

Track 10 Filename D:\Greg Adams - That's Life (2015) [FLAC]\10 - Damned If You Do.wav Pre-gap length 0:00:00.09 Peak level 89.1 %
Extraction speed 4.7 X
Track quality 100.0 %
Test CRC C3A84F8B
Copy CRC C3A84F8B
Track not present in AccurateRip database
Copy OK

Track 11 Filename D:\Greg Adams - That's Life (2015) [FLAC]\11 - Let's Stay Together.wav Pre-gap length 0:00:00.04 Peak level 89.1 %
Extraction speed 4.7 X
Track quality 100.0 %
Test CRC F79DAE64
Copy CRC F79DAE64
Track not present in AccurateRip database
Copy OK

None of the tracks are present in the AccurateRip database

No errors occurred

End of status report

- CUETools DB Plugin V2.1.6

[CTDB TOCID: FNqvAykSFyfAZbgmfUsk3K8EK.A-] found
Submit result: FNqvAykSFyfAZbgmfUsk3K8EK.A- has been confirmed
Track | CTDB Status
1 | (1/1) Accurately ripped
2 | (1/1) Accurately ripped
3 | (1/1) Accurately ripped
4 | (1/1) Accurately ripped
5 | (1/1) Accurately ripped
6 | (1/1) Accurately ripped
7 | (1/1) Accurately ripped
8 | (1/1) Accurately ripped
9 | (1/1) Accurately ripped
10 | (1/1) Accurately ripped
11 | (1/1) Accurately ripped

==== Log checksum 60E9B40242336E2CB2298FB9A238FAE7E30E5D7CEAC11B2861F5553040EA3C31 ====

Analyzed: Greg Adams / That's Life

DR Peak RMS Duration Track

DR6 -1.00 dB -7.66 dB 4:11 01-Little Black Dress
DR9 -1.00 dB -11.52 dB 5:19 02-Hush Hush
DR8 -1.00 dB -10.68 dB 3:58 03-Come Together
DR9 -1.00 dB -12.42 dB 4:13 04-Get Smart
DR7 -1.01 dB -10.00 dB 5:06 05-Going In Circles
DR8 -1.00 dB -11.26 dB 4:13 06-Didn't Wanna Do It
DR6 -1.00 dB -9.55 dB 4:58 07-Grow Old With Me
DR7 -1.00 dB -9.22 dB 3:43 08-Earth To Mars
DR8 -1.00 dB -10.77 dB 2:57 09-Without You
DR6 -1.00 dB -9.44 dB 4:51 10-Damned If You Do
DR6 -1.00 dB -9.16 dB 4:35 11-Let's Stay Together

Number of tracks: 11
Official DR value: DR7

Samplerate: 44100 Hz
Channels: 2
Bits per sample: 16
Bitrate: 868 kbps
Codec: FLAC

http://i75.fastpic.ru/big/2015/1118/0c/8d0f8401bc3df6fec0242cd83c4b2a0c.jpg

http://i73.fastpic.ru/big/2015/1118/7d/094ebb2074b888306831d12f88e4747d.jpg

http://i75.fastpic.ru/big/2015/1118/1f/2c0a84bc20ef27a1721d7e960775c01f.jpg



DOWNLOAD LINKS:
Buy Premium To Support Me & Get Resumable Support & Max Speed


Links are Interchangeable - No Password - Single Extraction

Greg Adams - That's Life (2015) {Ripa Records} Fast Download


Ad2

 
 
 
Dear visitor, you went to the site as an unregistered user. We encourage you to register or enter the site under your name.
 
   
 
 (Votes #: 0)