2013Zone For Latest Downloads

 
     
 
Legal Downloads » TV Shows » National Geographic - World's Weirdest: Pets XXL (2015)
Menu
Home Applications
Games Movies
Music TV Shows
Torrents Graphics

Sitemap

RSS
 
Advanced Search
Last News
Site Info
Top Contributors:
  1    supper88 32766
  2    admin 32691
  3    Whisky 10080
  4    Shark_ 8911
  5    creativelivenew 8706
  6    whathesupa 2799
  7    candymypost 840
  8    hvnteam 629
  9    vuong87 3


Articles:
  This Hour: 0
  Today: 0
  This Month: 38
  All Time: 515597


Torrents:
  Today: 0
  Yesterday: 0
  All Time: 156683


Membership:
  Registered Today :0
  This Hour:0
  This Month:0
  Total:14
  Banned:1

{online}
{inform_torrent}
Friend:
We Recomend
Trend
Trend
Ad1

Search In Site

TV Shows : National Geographic - World's Weirdest: Pets XXL (2015)
 

http://i73.fastpic.ru/big/2015/1118/c7/24863da383c53c48da256454627a8bc7.jpg
National Geographic - World's Weirdest: Pets XXL (2015)
HDTV | 1280x720 | .MKV/AVC @ 2818 Kbps | 43mn 59s | Audio: English AC3 384 kbps, 6 channels | Subs: None | 1.00 GiB
Genre: Documentary

"From a giant monitor lizard to a bulging buffalo, sometime the bigger the pet, the weirder it is!"

General
Unique ID
: 50304606443808434478194539452249864888 (0x25D85096044C71A8A1E1F66CFA1EFAB8)
Complete name : worlds.weirdest.pets.xxl.mkv
Format
: Matroska
Format version : Version 4 / Version 2
File size
: 1.00 GiB
Duration
: 43mn 59s
Overall bit rate : 3 267 Kbps

Video
ID : 1
Format
: AVC
Format/Info
: Advanced Video Codec
Format profile : [email protected]
Format settings, CABAC : Yes
Format settings, ReFrames : 5 frames
Codec ID
: V_MPEG4/ISO/AVC
Duration
: 43mn 59s
Bit rate
: 2 818 Kbps
Width
: 1 280 pixels
Height
: 720 pixels
Display aspect ratio : 16:9
Frame rate mode : Constant
Frame rate
: 25.000 fps
Color space
: YUV
Chroma subsampling

: 4:2:0
Bit depth
: 8 bits
Scan type
: Progressive
Bits/(Pixel*Frame)

: 0.122
Stream size
: 887 MiB (86%)
Writing library : x264 core 148 r2638 7599210
Encoding settings: cabac=1 / ref=5 / deblock=1:0:0 / analyse=0x3:0x113 / me=umh / subme=9 / psy=1 / psy_rd=1.00:0.00 / mixed_ref=1 / me_range=16 / chroma_me=1 / trellis=1 / 8x8dct=1 / cqm=0 / deadzone=21,11 / fast_pskip=0 / chroma_qp_offset=-2 / threads=12 / lookahead_threads=1 / sliced_threads=0 / nr=0 / decimate=1 / interlaced=0 / bluray_compat=0 / constrained_intra=0 / bframes=3 / b_pyramid=2 / b_adapt=2 / b_bias=0 / direct=3 / weightb=1 / open_gop=0 / weightp=2 / keyint=250 / keyint_min=25 / scenecut=40 / intra_refresh=0 / rc_lookahead=50 / rc=crf / mbtree=1 / crf=20.0 / qcomp=0.60 / qpmin=0 / qpmax=69 / qpstep=4 / ip_ratio=1.40 / aq=1:1.00
Language
: English
Default
: Yes
Forced
: No

Audio
ID : 2
Format
: AC-3
Format/Info
: Audio Coding 3
Mode extension : CM (complete main)
Format settings, Endianness : Big
Codec ID
: A_AC3
Duration
: 43mn 59s
Bit rate mode : Constant
Bit rate
: 384 Kbps
Channel(s)
: 6 channels
Channel positions: Front: L C R, Side: L R, LFE
Sampling rate : 48.0 KHz
Compression mode : Lossy
Stream size
: 121 MiB (12%)
Default
: Yes
Forced
: No

Screenshots:

http://i73.fastpic.ru/big/2015/1118/0d/18b0695a9f7d56cf873f682023d0950d.jpg

http://i76.fastpic.ru/big/2015/1118/d4/6ebdc3bef8e00ab756f186231585fdd4.jpg

http://i75.fastpic.ru/big/2015/1118/44/777613712bb4d8b422a9f98c315b9d44.jpg


DOWNLOAD LINKS:
Buy Premium To Support Me & Get Resumable Support & Max Speed


Links are Interchangeable - No Password - Single Extraction

National Geographic - World's Weirdest: Pets XXL (2015) Fast Download


Ad2

 
 
 
Dear visitor, you went to the site as an unregistered user. We encourage you to register or enter the site under your name.
 
   
 
 (Votes #: 0)