2013Zone For Latest Downloads

 
     
 
Legal Downloads » TV Shows » Channel 4 - Million Pound Mega Yachts (2015)
Menu
Home Applications
Games Movies
Music TV Shows
Torrents Graphics

Sitemap

RSS
 
Advanced Search
Last News
Site Info
Top Contributors:
  1    supper88 32766
  2    admin 32711
  3    Whisky 10080
  4    Shark_ 8911
  5    creativelivenew 8706
  6    whathesupa 2799
  7    candymypost 840
  8    hvnteam 629
  9    vuong87 3


Articles:
  This Hour: 0
  Today: 0
  This Month: 0
  All Time: 515501


Torrents:
  Today: 0
  Yesterday: 0
  All Time: 156676


Membership:
  Registered Today :0
  This Hour:0
  This Month:0
  Total:14
  Banned:1

{online}
{inform_torrent}
Friend:
Full Download Scripts
Torrent Download
Trend
Trend

Search In Site

TV Shows : Channel 4 - Million Pound Mega Yachts (2015)
 

http://i74.fastpic.ru/big/2015/1118/0e/33a3b3316dd9973381d6f9cef3a7630e.jpg
Channel 4 - Million Pound Mega Yachts (2015)
HDTV | 1280x720 | .MKV/AVC @ 2168 Kbps | 47mn 17s | Audio: English AC3 384 kbps, 2 channels | Subs: None | 881 MiB
Genre: Documentary

"A look into the secret, super-luxury world of the mega yacht, as 120 of the floating palaces, and some of their multi-millionaire owners, get together for the annual Monaco Yacht Show."

General
Unique ID
: 0 (0x0)
Complete name : Million.Pound.Mega.Yachts.mkv
Format
: Matroska
Format version : Version 2
File size
: 881 MiB
Duration
: 47mn 17s
Overall bit rate : 2 604 Kbps

Video
ID : 1
Format
: AVC
Format/Info
: Advanced Video Codec
Format profile : [email protected]
Format settings, CABAC : Yes
Format settings, ReFrames : 5 frames
Codec ID
: V_MPEG4/ISO/AVC
Duration
: 47mn 17s
Bit rate
: 2 168 Kbps
Width
: 1 280 pixels
Height
: 720 pixels
Display aspect ratio : 16:9
Frame rate mode : Constant
Frame rate
: 25.000 fps
Color space
: YUV
Chroma subsampling

: 4:2:0
Bit depth
: 8 bits
Scan type
: Progressive
Bits/(Pixel*Frame)

: 0.094
Stream size
: 733 MiB (83%)
Writing library : x264 core 148 r2638 7599210
Encoding settings: cabac=1 / ref=5 / deblock=1:0:0 / analyse=0x3:0x113 / me=umh / subme=8 / psy=1 / psy_rd=1.00:0.00 / mixed_ref=1 / me_range=16 / chroma_me=1 / trellis=1 / 8x8dct=1 / cqm=0 / deadzone=21,11 / fast_pskip=1 / chroma_qp_offset=-2 / threads=12 / lookahead_threads=2 / sliced_threads=0 / nr=0 / decimate=1 / interlaced=0 / bluray_compat=0 / constrained_intra=0 / bframes=3 / b_pyramid=2 / b_adapt=2 / b_bias=0 / direct=3 / weightb=1 / open_gop=0 / weightp=2 / keyint=250 / keyint_min=25 / scenecut=40 / intra_refresh=0 / rc_lookahead=50 / rc=crf / mbtree=1 / crf=21.0 / qcomp=0.60 / qpmin=0 / qpmax=69 / qpstep=4 / ip_ratio=1.40 / aq=1:1.00
Default
: Yes
Forced
: No
Color range
: Limited
Matrix coefficients

: BT.709

Audio
ID : 2
Format
: AC-3
Format/Info
: Audio Coding 3
Mode extension : CM (complete main)
Format settings, Endianness : Big
Codec ID
: A_AC3
Duration
: 47mn 17s
Bit rate mode : Constant
Bit rate
: 384 Kbps
Channel(s)
: 2 channels
Channel positions: Front: L R
Sampling rate : 48.0 KHz
Compression mode : Lossy
Stream size
: 130 MiB (15%)
Language
: English
Default
: Yes
Forced
: No

Screenshots:

http://i74.fastpic.ru/big/2015/1118/e4/05a4c44aca2552aa2a0336f51ae158e4.jpg

http://i74.fastpic.ru/big/2015/1118/48/a3fe96c6f2edf9ad55a1831887c8cd48.jpg

http://i67.fastpic.ru/big/2015/1118/07/8e7fc08a0b90066ca6f7a9825c9cc607.jpg

http://i66.fastpic.ru/big/2015/1118/41/76d57c0cf73bb4ec36e478c347119941.jpg


DOWNLOAD LINKS:
Buy Premium To Support Me & Get Resumable Support & Max Speed


Links are Interchangeable - No Password - Single Extraction

Channel 4 - Million Pound Mega Yachts (2015) Fast Download



 
 
 
Dear visitor, you went to the site as an unregistered user. We encourage you to register or enter the site under your name.
 
   
 
 (Votes #: 0)