2013Zone For Latest Downloads

 
     
 
Legal Downloads » Music » Th' Legendary Shack Shakers - Swampblood (2007)
Menu
Home Applications
Games Movies
Music TV Shows
Torrents Graphics

Sitemap

RSS
 
Advanced Search
Last News
Site Info
Top Contributors:
  1    supper88 32766
  2    admin 32711
  3    Whisky 10080
  4    Shark_ 8911
  5    creativelivenew 8706
  6    whathesupa 2799
  7    candymypost 840
  8    hvnteam 629
  9    vuong87 3


Articles:
  This Hour: 0
  Today: 0
  This Month: 0
  All Time: 515501


Torrents:
  Today: 0
  Yesterday: 0
  All Time: 156676


Membership:
  Registered Today :0
  This Hour:0
  This Month:0
  Total:14
  Banned:1

{online}
{inform_torrent}
Friend:
Full Download Scripts
Torrent Download
Trend
Trend

Search In Site

Music : Th' Legendary Shack Shakers - Swampblood (2007)
 
http://i73.fastpic.ru/big/2015/1118/a6/8d14822b5cab3233c2d7400ca36301a6.jpg

Th' Legendary Shack Shakers - Swampblood (2007)
EAC Rip | FLAC (Img) + Cue + Log ~ 237 Mb | MP3 CBR320 ~ 80 Mb
Scans (JPG, 600 dpi) ~ 52 Mb | RAR 5% Recovery
Swamp Rock/Blues, Alternative, Country, Psychobilly | Yep Roc Records #YEP 2149

"Th' Legendary Shack Shakers haven't called their fifth studio album Swampblood for nothing -- there's plenty of the band's usual amped-up Dixie-core frenzy on this album, but as usual they continue to expand their musical palette with each album, and on this set the Tennessee hell-raisers have added a healthy portion of classic swamp rock to the menu. The title cut sounds like Tony Joe White if he'd been born under an especially bad sign, the dark harp-enhanced shuffle of "Old Spur Line" calls up the ghost of Slim Harpo, and "Hellwater" could be the best Creedence Clearwater Revival track John Fogerty and company never bothered to record..."

http://i73.fastpic.ru/big/2015/1118/7a/b211d05fc1d22fd6fe44fc2eb9118c7a.jpg

Official Website | Wiki | Discogs | All Music
***************

http://i73.fastpic.ru/big/2015/1118/a7/5fc810602e15fda85367acaed83ea0a7.jpg

Track List:

01. Dawn [00:35]
02. Old spur line [03:48]
03. Hellwater [02:13]
04. Easter flesh [02:17]
05. Swampblood [03:11]
06. Dusk [00:17]
07. Cheat the hangman [01:37]
08. Born again again [02:19]
09. The deadenin ? [02:49]
10. Down and out [03:12]
11. Jimblyleg man [02:40]
12. He ain't right [02:11]
13. Angel lust [01:56]
14. Preachin' at traffic [01:39]
15. When I die [01:15]
16. Bright sunny south [01:03]

Exact Audio Copy V1.0 beta 3 from 29. August 2011

Отчёт EAC об извлечении, выполненном 3. октября 2015, 17:25

Th' Legendary Shack Shakers / Swampblood

Дисковод: PLEXTOR DVDR PX-880SA Adapter: 1 ID: 0

Режим чтения : Достоверность
?спользование точного потока : Да
Отключение кэ?а аудио : Да
?спользование указателей C2 : Нет

Коррекция смещения при чтении : 6
Способность читать области Lead-in и Lead-out : Нет
Заполнение пропущенных сэмплов ти?иной : Да
Удаление блоков с ти?иной в начале и конце : Нет
При вычислениях CRC использовались нулевые сэмплы : Да
?нтерфейс : Установленный вне?ний ASPI-интерфейс

Выходной формат : Пользовательский кодировщик
Выбранный битрейт : 1024 kBit/s
Качество : Высокий
Добавление ID3-тега : Нет
Утилита сжатия : C:\Program Files\Exact Audio Copy\FLAC\FLAC.EXE
Дополнительные параметры : -8 -V -T "ARTIST=%artist%" -T "ALBUM=%albumtitle%" -T "DATE=%year%" -T "GENRE=%genre%" -T "COMMENT=ripped by izia1956" %source%

TOC извлечённого CD Трек | Старт | Длительность | Начальный сектор | Конечный сектор

1 | 0:00.00 | 0:34.17 | 0 | 2566
2 | 0:34.17 | 3:47.39 | 2567 | 19630
3 | 4:21.56 | 2:12.47 | 19631 | 29577
4 | 6:34.28 | 2:16.48 | 29578 | 39825
5 | 8:51.01 | 3:10.15 | 39826 | 54090
6 | 12:01.16 | 0:16.67 | 54091 | 55357
7 | 12:18.08 | 1:36.28 | 55358 | 62585
8 | 13:54.36 | 2:18.45 | 62586 | 72980
9 | 16:13.06 | 2:48.48 | 72981 | 85628
10 | 19:01.54 | 3:11.65 | 85629 | 100018
11 | 22:13.44 | 2:39.09 | 100019 | 111952
12 | 24:52.53 | 2:10.56 | 111953 | 121758
13 | 27:03.34 | 1:55.05 | 121759 | 130388
14 | 28:58.39 | 1:38.08 | 130389 | 137746
15 | 30:36.47 | 1:14.45 | 137747 | 143341
16 | 31:51.17 | 1:02.05 | 143342 | 147996

Характеристики диапазона извлечения и сообщения об о?ибках

Выбранный диапазон ?мя файла D:\BitComet\Th' Legendary Shack Shakers(flac)\2007 - Swampblood\Th' Legendary Shack Shakers - Swampblood.wav Пиковый уровень 99.9 %
Скорость извлечения 2.9 X
Качество диапазона 100.0 %
CRC теста DDE7CAF3
CRC копии DDE7CAF3
Копирование... OK

О?ибок не произо?ло


AccurateRip: сводка

Трек 1 : извлечено точно (доверие 9) [CCC0A47D] (AR v2)
Трек 2 : извлечено точно (доверие 8) [5F48EAEB] (AR v2)
Трек 3 : извлечено точно (доверие 8) [E91F321E] (AR v2)
Трек 4 : извлечено точно (доверие 8) [080BF462] (AR v2)
Трек 5 : извлечено точно (доверие 8) [748CBD88] (AR v2)
Трек 6 : извлечено точно (доверие 8) [2AFEC682] (AR v2)
Трек 7 : извлечено точно (доверие 8) [1A7E02AE] (AR v2)
Трек 8 : извлечено точно (доверие 8) [85687842] (AR v2)
Трек 9 : извлечено точно (доверие 8) [6AE8D4BA] (AR v2)
Трек 10 : извлечено точно (доверие 8) [7CD2823F] (AR v2)
Трек 11 : извлечено точно (доверие 8) [1123658C] (AR v2)
Трек 12 : извлечено точно (доверие 8) [1757CE35] (AR v2)
Трек 13 : извлечено точно (доверие 8) [14406376] (AR v2)
Трек 14 : извлечено точно (доверие 8) [378D8D7A] (AR v2)
Трек 15 : извлечено точно (доверие 8) [D917C9AC] (AR v2)
Трек 16 : извлечено точно (доверие 8) [D1925C8E] (AR v2)

Все треки извлечены точно

Конец отчёта

==== Контрольная сумма отчёта A57BD610E64FCFAFADD97E7F230029036A3E022C10413F3DF98A1F39BD44D20A ====

foobar2000 1.2.6 / Dynamic Range Meter 1.1.1
log date: 2015-11-16 23:09:33

Analyzed: Th' Legendary Shack Shakers / Swampblood

DR Peak RMS Duration Track

DR5 -6.50 dB -13.19 dB 0:34 01-Dawn
DR6 -0.01 dB -7.21 dB 3:48 02-Old spur line
DR7 -0.01 dB -7.65 dB 2:13 03-Hellwater
DR6 -0.01 dB -6.68 dB 2:17 04-Easter flesh
DR7 -0.01 dB -7.85 dB 3:10 05-Swampblood
DR4 -3.95 dB -10.46 dB 0:17 06-Dusk
DR5 -0.01 dB -7.08 dB 1:36 07-Cheat the hangman
DR5 -0.01 dB -6.16 dB 2:19 08-Born again again
DR5 -0.01 dB -6.04 dB 2:49 09-The deadenin ?
DR5 -0.01 dB -6.98 dB 3:12 10-Down and out
DR6 -0.01 dB -7.17 dB 2:39 11-Jimblyleg man
DR6 -0.01 dB -7.92 dB 2:11 12-He ain't right
DR6 -0.01 dB -6.53 dB 1:55 13-Angel lust
DR7 -0.01 dB -8.96 dB 1:38 14-Preachin' at traffic
DR8 -0.01 dB -10.02 dB 1:15 15-When I die
DR7 -0.01 dB -9.88 dB 1:02 16-Bright sunny south

Number of tracks: 16
Official DR value: DR6

Samplerate: 44100 Hz
Channels: 2
Bits per sample: 16
Bitrate: 959 kbps
Codec: FLAC

[CUETools log; Date: 16.11.2015 23:09:24; Version: 2.1.5]
HDCD: peak extend: none, transient filter: none, gain: none
[CTDB TOCID: v9JBYPNEX3ebuaNFPiWFJW8X5D8-] found.
Track | CTDB Status
1 | (5/5) Accurately ripped
2 | (5/5) Accurately ripped
3 | (5/5) Accurately ripped
4 | (5/5) Accurately ripped
5 | (5/5) Accurately ripped
6 | (5/5) Accurately ripped
7 | (5/5) Accurately ripped
8 | (5/5) Accurately ripped
9 | (5/5) Accurately ripped
10 | (5/5) Accurately ripped
11 | (5/5) Accurately ripped
12 | (5/5) Accurately ripped
13 | (5/5) Accurately ripped
14 | (5/5) Accurately ripped
15 | (5/5) Accurately ripped
16 | (5/5) Accurately ripped
[AccurateRip ID: 0014127d-00f19f21-d307b510] found.
Track [ CRC | V2 ] Status
01 [8732b0b0|ccc0a47d] (06+10/16) Accurately ripped
02 [4f9a2dcd|5f48eaeb] (06+09/15) Accurately ripped
03 [456f7811|e91f321e] (06+09/15) Accurately ripped
04 [9186964d|080bf462] (06+09/15) Accurately ripped
05 [40ef8384|748cbd88] (06+09/15) Accurately ripped
06 [ec287ca4|2afec682] (06+09/15) Accurately ripped
07 [9aeb154c|1a7e02ae] (06+09/15) Accurately ripped
08 [55a1d66b|85687842] (06+09/15) Accurately ripped
09 [6eba7ee6|6ae8d4ba] (06+09/15) Accurately ripped
10 [cec7dab8|7cd2823f] (06+09/15) Accurately ripped
11 [3930c2b9|1123658c] (06+09/15) Accurately ripped
12 [6dc34078|1757ce35] (06+09/15) Accurately ripped
13 [a7e58c31|14406376] (06+09/15) Accurately ripped
14 [d8a4411b|378d8d7a] (06+09/15) Accurately ripped
15 [8af11651|d917c9ac] (05+09/14) Accurately ripped
16 [0073b188|d1925c8e] (05+09/14) Accurately ripped

Track Peak [ CRC32 ] [W/O NULL] [ LOG ]
-- 99,9 [DDE7CAF3] [39074D2C] CRC32
01 47,2 [67B51DA3] [9560F39A]
02 99,9 [8FEE6AAA] [45F7C98F]
03 99,9 [CD80A166] [D534240F]
04 99,9 [5F1EF070] [1FF6CC45]
05 99,9 [4BD67A13] [8DF912E2]
06 63,4 [82C2A433] [521FA27E]
07 99,9 [0A858616] [F4B7C060]
08 99,9 [EA5FE541] [0854595B]
09 99,9 [2F159FCD] [97D4D6AA]
10 99,9 [1AC0A68F] [31B657FC]
11 99,9 [16E6F2D6] [86640368]
12 99,9 18B3E77 [31442D5C]
13 99,9 [05681E2E] [6DC85BF7]
14 99,9 [C92F0B3E] [A953EB1B]
15 99,9 [08512D14] [5DDA0957]
16 99,9 [F2B2E7AB] [6754C18C]

http://i73.fastpic.ru/big/2015/1118/fa/c3578e0618af914167f5735ac9e11efa.jpg

DOWNLOAD LINKS:
Buy Premium To Support Me & Get Resumable Support & Max Speed


Links are Interchangeable - No Password - Single Extraction

Th' Legendary Shack Shakers - Swampblood (2007) Fast Download



 
 
 
Dear visitor, you went to the site as an unregistered user. We encourage you to register or enter the site under your name.
 
   
 
 (Votes #: 0)