2013Zone For Latest Downloads

 
     
 
Legal Downloads » Music » Lonnie Liston Smith - Live at The New Morning - Live in Paris (2004) [HDTV 1080p]
Menu
Home Applications
Games Movies
Music TV Shows
Torrents Graphics

Sitemap

RSS
 
Advanced Search
Last News
Site Info
Top Contributors:
  1    supper88 32766
  2    admin 32708
  3    Whisky 10080
  4    Shark_ 8911
  5    creativelivenew 8706
  6    whathesupa 2799
  7    candymypost 840
  8    hvnteam 629
  9    vuong87 3


Articles:
  This Hour: 0
  Today: 17
  This Month: 17
  All Time: 515518


Torrents:
  Today: 0
  Yesterday: 0
  All Time: 156676


Membership:
  Registered Today :0
  This Hour:0
  This Month:0
  Total:14
  Banned:1

{online}
{inform_torrent}
Friend:
Full Download Scripts
Torrent Download
Trend
Trend

Search In Site

Music : Lonnie Liston Smith - Live at The New Morning - Live in Paris (2004) [HDTV 1080p]
 
http://i73.fastpic.ru/big/2015/1120/c5/a611512b6d3322c5193b68547f611dc5.jpg

Lonnie Liston Smith - Live at The New Morning - Live in Paris (2004)
HDTV 1080p | MP4 | 1920x1080 (16:9), 25.00 fps, AVC, 11.1 Mbps, 0.213 bits/pixel | 48.0 KHz, AAC-LC, 2 ch, stereo, 128-384 Kbps VBR
Jazz, Fusion | Length: 00:53:48 | 4.52 GB | Nitroflare/Uploadable/Filefactory

"Lonnie Liston Smith, Jr. (born December 28, 1940) is an American jazz, soul, and funk musician who played with notable jazz artists such as Pharoah Sanders and Miles Davis before forming Lonnie Liston Smith and the Cosmic Echoes, recording a number of albums widely regarded as classics in the fusion, quiet storm, smooth jazz and acid jazz genres."


http://i74.fastpic.ru/big/2015/1120/06/86439c1246494d3002784af209875306.jpg

http://i73.fastpic.ru/big/2015/1120/0d/4f251f0a3afc88131771d2305aed090d.jpg

http://i76.fastpic.ru/big/2015/1120/e2/50eccef373b3972b4f579ae20e969de2.jpg


Tracklist
Sun Beams
We Can Dream
Mardi Gras
Starlight & You
Love Land
Never To Late
Golden Dream
Give Peace A Chance
Renaissance

General
Complete name : C:\Users\ggu\Desktop\ggu\Lonnie Liston Smith - LaTNM (2004)\Lonnie Liston Smith - Live at The New Morning (Live in Paris) 2004.mp4
Format
: MPEG-4
Format profile : Base Media / Version 2
Codec ID
: mp42
File size
: 4.52 GiB
Duration
: 53mn 48s
Overall bit rate mode : Variable
Overall bit rate : 12.0 Mbps
Encoded date : UTC 2014-06-27 05:05:09
Tagged date
: UTC 2014-06-27 05:05:09

Video
ID : 2
Format
: AVC
Format/Info
: Advanced Video Codec
Format profile : Main@L4.0
Format settings, CABAC : Yes
Format settings, ReFrames : 2 frames
Format settings, GOP : M=3, N=30
Codec ID
: avc1
Codec ID/Info : Advanced Video Coding
Duration
: 53mn 48s
Source duration : 53mn 48s
Bit rate mode : Variable
Bit rate
: 11.1 Mbps
Maximum bit rate : 12.0 Mbps
Width
: 1 920 pixels
Height
: 1 088 pixels
Original height : 1 080 pixels
Display aspect ratio : 16:9
Original display aspect ratio : 16:9
Frame rate mode : Constant
Frame rate
: 25.000 fps
Original frame rate

: 12.500 fps
Color space
: YUV
Chroma subsampling

: 4:2:0
Bit depth
: 8 bits
Scan type
: Progressive
Bits/(Pixel*Frame)

: 0.213
Stream size
: 4.19 GiB (93%)
Source stream size

: 4.37 GiB (97%)
Language
: English
Encoded date : UTC 2014-06-27 05:05:09
Tagged date
: UTC 2014-06-27 05:05:09

Audio
ID : 1
Format
: AAC
Format/Info
: Advanced Audio Codec
Format profile : LC
Codec ID
: 40
Duration
: 53mn 48s
Source duration : 53mn 48s
Bit rate mode : Constant
Bit rate
: 384 Kbps
Nominal bit rate : 128 Kbps
Channel(s)
: 2 channels
Channel positions: Front: L R
Sampling rate : 48.0 KHz
Compression mode : Lossy
Stream size
: 148 MiB (3%)
Source stream size

: 148 MiB (3%)
Language
: English
Encoded date : UTC 2014-06-27 05:05:09
Tagged date
: UTC 2014-06-27 05:05:09
mdhd_Duration : 3228816

Thanks to the original uploader
DOWNLOAD LINKS:
Buy Premium To Support Me & Get Resumable Support & Max Speed


Links are Interchangeable - No Password - Single Extraction

Lonnie Liston Smith - Live at The New Morning - Live in Paris (2004) [HDTV 1080p] Fast Download



 
 
 
Dear visitor, you went to the site as an unregistered user. We encourage you to register or enter the site under your name.
 
   
 
 (Votes #: 0)