2013Zone For Latest Downloads

 
     
 
Legal Downloads » Music » Devin Townsend Presents: Ziltoid Live at the Royal Albert Hall (2015) [BDRip 720p]
Menu
Home Applications
Games Movies
Music TV Shows
Torrents Graphics

Sitemap

RSS
 
Advanced Search
Last News
Site Info
Top Contributors:
  1    supper88 32766
  2    admin 32671
  3    Whisky 10080
  4    Shark_ 8911
  5    creativelivenew 8706
  6    whathesupa 2799
  7    candymypost 840
  8    hvnteam 629
  9    vuong87 3


Articles:
  This Hour: 0
  Today: 0
  This Month: 58
  All Time: 515616


Torrents:
  Today: 0
  Yesterday: 0
  All Time: 156702


Membership:
  Registered Today :0
  This Hour:0
  This Month:0
  Total:14
  Banned:1

{online}
{inform_torrent}
Friend:
We Recomend
Trend
Trend
Ad1

Search In Site

Music : Devin Townsend Presents: Ziltoid Live at the Royal Albert Hall (2015) [BDRip 720p]
 
http://i76.fastpic.ru/big/2015/1120/09/97569b31ef550375dbdf8e97466d6a09.jpg

Devin Townsend Presents: Ziltoid Live at the Royal Albert Hall (2015)
BDRip 720p | MKV | 4020 kbps, 1280x720 at 23.976 fps, AVC ([email protected]) | 5.46 GB
Audio: 640 kbps, 48 khz, 16 bits, 2 channels, AC-3 | Length: 02:47:00
Genre: Metal | Nitroflare/Uploadable/Filefactory

"Earlier this year, Canadian multi-instrumentalist, singer, songwriter and producer Devin Townsend played an incredible sold-out show at London's legendary Royal Albert Hall venue, bringing the story of Ziltoid to life on stage as well as playing tracks from across his back catalogue. This larger-than-life evening was captured on film and is set to be released on November 13. Shot on 15 high-definition cameras, it was directed by Paul M Green (OPETH, BB KING, STEVE HACKETT) and features special guests such as Dominique Lenore Persi (STOLEN BABIES), Chris Jericho (world-famous wrestler and singer of FOZZY) and Jean Savoie, with video narration by Bill Courage, as well as 12 singers and actors as cast and choir.

A trailer for "Devin Townsend Presents: Ziltoid Live At The Royal Albert Hall" is available below.

Devin had this to say about it: "The show at The Royal Albert Hall was a great experience. To be able to make artistic expression rooted in creativity and then to be able to articulate it in these sorts of ways - at this sort of venue - was pretty awesome. The whole thing was quite a challenge, but ultimately it worked and we were all very satisfied with it. I completely appreciate the support that has allowed this to happen from the audience, and I thank my team and Inside Out Records for busting ass to make this DVD a reality. I think if you enjoy what I do, you'll really dig it. Thank you so much for the opportunity!""


http://i76.fastpic.ru/big/2015/1120/2a/35890bbf921e3c3b9de881289f22cd2a.jpg


Track Listing
1. Z
2. From Sleep awake
3. Ziltoidian empire
4. War princess
5. Deathray
6. March of the poozers
7. Wandering eye
8. Earth
9. Ziltoid goes home
10. Through the wormhole
11. Dimension Z

General
Unique ID
: 201130111033176761368050369668718880693 (0x975040174F319F98B58FD8D424D167B5)
Complete name : C:\Users\ggu\Desktop\ggu\Devin.Townsend.Presents.Ziltoid.Live.at.the.Royal.Albert.Hall.2015.720p.MBluRay.x264-FKKHD\dtpzlatrah-720p.mkv
Format
: Matroska
Format version : Version 4 / Version 2
File size
: 5.46 GiB
Duration
: 2h 47mn
Overall bit rate : 4 662 Kbps
Encoded date : UTC 2015-11-18 06:07:54
Writing application

: mkvmerge v7.1.0 ('Good Love') 64bit built on Jul 27 2014 13:06:55
Writing library : libebml v1.3.0 + libmatroska v1.4.1
DURATION
: 02:47:34.208000000
NUMBER_OF_FRAMES : 314194
NUMBER_OF_BYTES : 804336640
_STATISTICS_WRITING_APP : mkvmerge v7.1.0 ('Good Love') 64bit built on Jul 27 2014 13:06:55
_STATISTICS_WRITING_DATE_UTC : 2015-11-18 06:07:54
_STATISTICS_TAGS : BPS DURATION NUMBER_OF_FRAMES NUMBER_OF_BYTES

Video
ID : 1
Format
: AVC
Format/Info
: Advanced Video Codec
Format profile : [email protected]
Format settings, CABAC : Yes
Format settings, ReFrames : 5 frames
Codec ID
: V_MPEG4/ISO/AVC
Duration
: 2h 47mn
Bit rate
: 4 020 Kbps
Width
: 1 280 pixels
Height
: 720 pixels
Display aspect ratio : 16:9
Frame rate mode : Constant
Frame rate
: 23.976 fps
Color space
: YUV
Chroma subsampling

: 4:2:0
Bit depth
: 8 bits
Scan type
: Progressive
Bits/(Pixel*Frame)

: 0.182
Stream size
: 4.60 GiB (84%)
Writing library : x264 core 148 r2638 7599210
Encoding settings: cabac=1 / ref=5 / deblock=1:0:0 / analyse=0x3:0x113 / me=umh / subme=8 / psy=1 / psy_rd=1.00:0.00 / mixed_ref=1 / me_range=16 / chroma_me=1 / trellis=1 / 8x8dct=1 / cqm=0 / deadzone=21,11 / fast_pskip=0 / chroma_qp_offset=-2 / threads=12 / lookahead_threads=2 / sliced_threads=0 / nr=0 / decimate=1 / interlaced=0 / bluray_compat=0 / constrained_intra=0 / bframes=3 / b_pyramid=2 / b_adapt=2 / b_bias=0 / direct=3 / weightb=1 / open_gop=0 / weightp=2 / keyint=250 / keyint_min=23 / scenecut=40 / intra_refresh=0 / rc_lookahead=50 / rc=2pass / mbtree=1 / bitrate=4020 / ratetol=1.0 / qcomp=0.60 / qpmin=0 / qpmax=69 / qpstep=4 / cplxblur=20.0 / qblur=0.5 / ip_ratio=1.40 / aq=1:1.00
Language
: English
Default
: Yes
Forced
: No
DURATION
: 02:47:34.211000000
NUMBER_OF_FRAMES : 241060
NUMBER_OF_BYTES : 5052141817
_STATISTICS_WRITING_APP : mkvmerge v7.1.0 ('Good Love') 64bit built on Jul 27 2014 13:06:55
_STATISTICS_WRITING_DATE_UTC : 2015-11-18 06:07:54
_STATISTICS_TAGS : BPS DURATION NUMBER_OF_FRAMES NUMBER_OF_BYTES

Audio
ID : 2
Format
: AC-3
Format/Info
: Audio Coding 3
Mode extension : CM (complete main)
Format settings, Endianness : Big
Codec ID
: A_AC3
Duration
: 2h 47mn
Bit rate mode : Constant
Bit rate
: 640 Kbps
Channel(s)
: 2 channels
Channel positions: Front: L R
Sampling rate : 48.0 KHz
Bit depth
: 16 bits
Compression mode : Lossy
Stream size
: 767 MiB (14%)
Language
: English
Default
: Yes
Forced
: No

Menu
00:00:00.000 : en:00:00:00.000
00:06:08.285 : en:00:06:08.285
00:09:06.796 : en:00:09:06.796
00:12:43.805 : en:00:12:43.805
00:19:16.155 : en:00:19:16.155
00:27:03.914 : en:00:27:03.914
00:32:15.600 : en:00:32:15.600
00:38:46.282 : en:00:38:46.282
00:42:26.711 : en:00:42:26.711
00:50:05.211 : en:00:50:05.211
00:56:44.151 : en:00:56:44.151
01:00:21.993 : en:01:00:21.993
01:07:57.865 : en:01:07:57.865
01:15:01.622 : en:01:15:01.622
01:18:49.433 : en:01:18:49.433
01:23:47.481 : en:01:23:47.481
01:31:35.699 : en:01:31:35.699
01:41:11.357 : en:01:41:11.357
01:46:17.913 : en:01:46:17.913
01:51:44.948 : en:01:51:44.948
01:59:25.408 : en:01:59:25.408
02:02:47.694 : en:02:02:47.694
02:08:23.404 : en:02:08:23.404
02:16:26.804 : en:02:16:26.804
02:26:28.321 : en:02:26:28.321
02:39:02.199 : en:02:39:02.199

Thanks to the original uploader
DOWNLOAD LINKS:
Buy Premium To Support Me & Get Resumable Support & Max Speed


Links are Interchangeable - No Password - Single Extraction



Ad2

 
 
 
Dear visitor, you went to the site as an unregistered user. We encourage you to register or enter the site under your name.
 
   
 
 (Votes #: 0)