2013Zone For Latest Downloads

 
     
 
Legal Downloads » TV Shows » TLC - Jodie Marsh Is Exposed Online (2015)
Menu
Home Applications
Games Movies
Music TV Shows
Torrents Graphics

Sitemap

RSS
 
Advanced Search
Last News
Site Info
Top Contributors:
  1    supper88 32766
  2    admin 32708
  3    Whisky 10080
  4    Shark_ 8911
  5    creativelivenew 8706
  6    whathesupa 2799
  7    candymypost 840
  8    hvnteam 629
  9    vuong87 3


Articles:
  This Hour: 0
  Today: 17
  This Month: 17
  All Time: 515518


Torrents:
  Today: 0
  Yesterday: 0
  All Time: 156676


Membership:
  Registered Today :0
  This Hour:0
  This Month:0
  Total:14
  Banned:1

{online}
{inform_torrent}
Friend:
Full Download Scripts
Torrent Download
Trend
Trend

Search In Site

TV Shows : TLC - Jodie Marsh Is Exposed Online (2015)
 

http://i76.fastpic.ru/big/2015/1120/9c/3c74a587a12ca0e62174f866c71b3a9c.jpg
TLC - Jodie Marsh Is Exposed Online (2015)
HDTV | 1280x720 | .MKV/AVC @ 1809 Kbps | 43mn 53s | Audio: English AC3 384 kbps, 6 channels | Subs: None | 702 MiB
Genre: Documentary

"10 years ago Revenge Porn barely existed, but now thanks to a combination of smart phones and social media, it's a term that is becoming more and more familiar, with victims ranging from Celebrities to school kids. Jodie, the subject of bullying throughout her school years, was herself was a victim of an online stalker until recently, so can relate to how it feels to be ?virtually' harassed and victimised. She's also confessed to taking intimate pictures of herself for former partners. But how does it feel when someone posts images or videos of you doing the most intimate things imaginable, online, for the world to see? In this film Jodie will talk to victims to see how devastating the effects can be and looks at what is being done to prevent this heinous crime. She'll talk to tech experts and hackers to highlight how easy it is to hack into our private lives and she'll meet the perpetrators face to face to see what motivates them to invade someone's privacy and then share it with the world."

General
Unique ID
: 0 (0x0)
Complete name : jodie.marsh.is.exposed.online.mkv
Format
: Matroska
Format version : Version 4 / Version 2
File size
: 702 MiB
Duration
: 43mn 53s
Overall bit rate : 2 237 Kbps

Video
ID : 1
Format
: AVC
Format/Info
: Advanced Video Codec
Format profile : High@L4.1
Format settings, CABAC : Yes
Format settings, ReFrames : 5 frames
Codec ID
: V_MPEG4/ISO/AVC
Duration
: 43mn 53s
Bit rate
: 1 809 Kbps
Width
: 1 280 pixels
Height
: 720 pixels
Display aspect ratio : 16:9
Frame rate mode : Constant
Frame rate
: 25.000 fps
Color space
: YUV
Chroma subsampling

: 4:2:0
Bit depth
: 8 bits
Scan type
: Progressive
Bits/(Pixel*Frame)

: 0.079
Stream size
: 568 MiB (81%)
Writing library : x264 core 148 r2638 7599210
Encoding settings: cabac=1 / ref=5 / deblock=1:0:0 / analyse=0x3:0x113 / me=umh / subme=8 / psy=1 / psy_rd=1.00:0.00 / mixed_ref=1 / me_range=16 / chroma_me=1 / trellis=1 / 8x8dct=1 / cqm=0 / deadzone=21,11 / fast_pskip=1 / chroma_qp_offset=-2 / threads=12 / lookahead_threads=2 / sliced_threads=0 / nr=0 / decimate=1 / interlaced=0 / bluray_compat=0 / constrained_intra=0 / bframes=3 / b_pyramid=2 / b_adapt=2 / b_bias=0 / direct=3 / weightb=1 / open_gop=0 / weightp=2 / keyint=250 / keyint_min=25 / scenecut=40 / intra_refresh=0 / rc_lookahead=50 / rc=crf / mbtree=1 / crf=20.0 / qcomp=0.60 / qpmin=0 / qpmax=69 / qpstep=4 / ip_ratio=1.40 / aq=1:1.00
Default
: Yes
Forced
: No
Color range
: Limited
Matrix coefficients

: BT.709

Audio
ID : 2
Format
: AC-3
Format/Info
: Audio Coding 3
Mode extension : CM (complete main)
Format settings, Endianness : Big
Codec ID
: A_AC3
Duration
: 43mn 53s
Bit rate mode : Constant
Bit rate
: 384 Kbps
Channel(s)
: 6 channels
Channel positions: Front: L C R, Side: L R, LFE
Sampling rate : 48.0 KHz
Compression mode : Lossy
Stream size
: 121 MiB (17%)
Title
: English
Language
: English
Default
: Yes
Forced
: No

Screenshots:

http://i75.fastpic.ru/big/2015/1120/4d/dc367a2e1c6811c06658aa2bb18c384d.jpg

http://i73.fastpic.ru/big/2015/1120/08/698ff73fc68148ef4175f4eabdf7d608.jpg

http://i76.fastpic.ru/big/2015/1120/5e/615d089cd72f5aa900392004b92ea55e.jpg

http://i74.fastpic.ru/big/2015/1120/49/cc35b26b6e1733ed7db2a3a978e4e149.jpg


DOWNLOAD LINKS:
Buy Premium To Support Me & Get Resumable Support & Max Speed


Links are Interchangeable - No Password - Single Extraction

TLC - Jodie Marsh Is Exposed Online (2015) Fast Download



 
 
 
Dear visitor, you went to the site as an unregistered user. We encourage you to register or enter the site under your name.
 
   
 
 (Votes #: 0)