2013Zone For Latest Downloads

 
     
 
Legal Downloads » Music » Jack DeJohnette - Selected Recordings (2004) {ECM rarum XII}
Menu
Home Applications
Games Movies
Music TV Shows
Torrents Graphics

Sitemap

RSS
 
Advanced Search
Last News
Site Info
Top Contributors:
  1    supper88 32766
  2    admin 32708
  3    Whisky 10080
  4    Shark_ 8911
  5    creativelivenew 8706
  6    whathesupa 2799
  7    candymypost 840
  8    hvnteam 629
  9    vuong87 3


Articles:
  This Hour: 0
  Today: 17
  This Month: 17
  All Time: 515518


Torrents:
  Today: 0
  Yesterday: 0
  All Time: 156676


Membership:
  Registered Today :0
  This Hour:0
  This Month:0
  Total:14
  Banned:1

{online}
{inform_torrent}
Friend:
Full Download Scripts
Torrent Download
Trend
Trend

Search In Site

Music : Jack DeJohnette - Selected Recordings (2004) {ECM rarum XII}
 
http://i74.fastpic.ru/big/2015/1120/bc/fcc5927f6611dae9aa988d9201b43dbc.jpg

Jack DeJohnette - Selected Recordings (2004) {ECM rarum XII}
EAC 0.95b4 | FLAC tracks level 8 | Cue+Log+M3U | Scans 300dpi | 347MB + 5% Recovery
Genre: Jazz, Fusion

"The Chicago-born master drummer hopes that his selection "will bring peace, warmth and joy to the listener". The warm and joyful duo recording with Keith Jarrett that brought both DeJohnette and Jarrett to ECM in 1971 is reprised here - as are bright moments with Gateway, Mick Goodrick and a succession of Jack's own bands - New Directions, Special Edition and Oneness, with soloists including Lester Bowie, David Murray and John Abercrombie."

Track List
01. Third World Anthem
02. Jack In
03. Feebles, Fables and Ferns
04. Overture - Communion
05. How's Never
06. Silver Hollow
07. Picture 5
08. Picture 6

musicians
Jack DeJohnette - drums, piano
John Abercrombie - guitar
Don Alias - percussion
Lester Bowie - trumpet
Michael Cain - piano
Eddie Gomez - double-bass
Mick Goodrick - guitar
Jerome Harris - guitar
Dave Holland - double-bass
Keith Jarrett - piano, electric piano
Howard Johnson - tuba
David Murray - tenor saxophone
John Purcell - alto saxophone
Rufus Reid - double-bass
John Surman - baritone saxophone

Produced by Manfred Eicher

Отчёт EAC об извлечении, выполненном 5. апреля 2008, 18:22 для диска:
Jack DeJohnette / Selected Recordings [:rarum]

Дисковод: TSSTcorpCDDVDW SH-S203D Adapter: 2 ID: 1
Режим чтения: Достоверный (C2: нет, Точный поток: да, Отключение кэ?а: да)
Коррекция смещения при чтении: 6
Способность читать области Lead-in и Lead-out : Нет

Выходной формат: Внутренние WAV-операции 44.100 Гц; 16 бит; стерео

Другие параметры:
Заполнение пропущенных сэмплов ти?иной : Да
Удаление блоков с ти?иной в начале и конце : Нет
Встроенный Win32-интерфейс для Win NT/2000

Трек 1
?мя файла C:\Documents and Settings\EACtemp\(01) Third World Anthem - Jack DeJohnette.wav Пиковый уровень 83.1 %
Качество трека 100.0 %
CRC теста EDC2C1E5
CRC копии EDC2C1E5
Копирование... OK

Трек 2
?мя файла C:\Documents and Settings\EACtemp\(02) Jack In - Jack DeJohnette.wav Пиковый уровень 100.0 %
Качество трека 100.0 %
CRC теста 1D2A7BED
CRC копии 1D2A7BED
Копирование... OK

Трек 3
?мя файла C:\Documents and Settings\EACtemp\(03) Feebles, Fables and Ferns - Jack DeJohnette.wav Пиковый уровень 89.9 %
Качество трека 100.0 %
CRC теста 3D3111F8
CRC копии 3D3111F8
Копирование... OK

Трек 4
?мя файла C:\Documents and Settings\EACtemp\(04) Overture, Communion - Jack DeJohnette.wav Пиковый уровень 86.9 %
Качество трека 99.9 %
CRC теста 00690F52
CRC копии 00690F52
Копирование... OK

Трек 5
?мя файла C:\Documents and Settings\EACtemp\(05) How's Never - Jack DeJohnette.wav Пиковый уровень 99.6 %
Качество трека 100.0 %
CRC теста 8626D040
CRC копии 8626D040
Копирование... OK

Трек 6
?мя файла C:\Documents and Settings\EACtemp\(06) Silver Hollow - Jack DeJohnette.wav Пиковый уровень 78.2 %
Качество трека 99.9 %
CRC теста E3E86C7D
CRC копии E3E86C7D
Копирование... OK

Трек 7
?мя файла C:\Documents and Settings\EACtemp\(07) Picture 5 - Jack DeJohnette.wav Пиковый уровень 84.6 %
Качество трека 100.0 %
CRC теста FD8A4D29
CRC копии FD8A4D29
Копирование... OK

Трек 8
?мя файла C:\Documents and Settings\EACtemp\(08) Picture 6 - Jack DeJohnette.wav Пиковый уровень 50.9 %
Качество трека 100.0 %
CRC теста F246DC2C
CRC копии F246DC2C
Копирование... OK

О?ибок не произо?ло

Конец отчёта

Analyzed: Jack DeJohnette / Selected Recordings

DR Peak RMS Duration Track

DR10 -1.60 dB -13.93 dB 10:55 01-Third World Anthem
DR17 0.00 dB -20.67 dB 12:37 02-Jack In
DR15 -0.92 dB -21.98 dB 8:01 03-Feebles, Fables And Ferns
DR13 -1.21 dB -18.55 dB 5:59 04-Overture - Communion
DR11 -0.03 dB -12.83 dB 7:32 05-How's Never
DR13 -2.13 dB -20.21 dB 8:26 06-Silver Hollow
DR14 -1.45 dB -21.64 dB 6:08 07-Picture 5
DR16 -5.86 dB -27.45 dB 7:54 08-Picture 6

Number of tracks: 8
Official DR value: DR14

Samplerate: 44100 Hz
Channels: 2
Bits per sample: 16
Bitrate: 616 kbps
Codec: FLAC

http://i74.fastpic.ru/big/2015/1120/e0/b1fbbf7b62ee7ca83149cdf688d1a1e0.jpg

http://i75.fastpic.ru/big/2015/1120/9a/194b4634a62e265269092eaf4128529a.jpg

Thanks for the rip to JanV


DOWNLOAD LINKS:
Buy Premium To Support Me & Get Resumable Support & Max Speed


Links are Interchangeable - No Password - Single Extraction

Jack DeJohnette - Selected Recordings (2004) {ECM rarum XII} Fast Download



 
 
 
Dear visitor, you went to the site as an unregistered user. We encourage you to register or enter the site under your name.
 
   
 
 (Votes #: 0)