2013Zone For Latest Downloads

 
     
 
Legal Downloads » TV Shows » Sky Movies - Steve Jobs (2015)
Menu
Home Applications
Games Movies
Music TV Shows
Torrents Graphics

Sitemap

RSS
 
Advanced Search
Last News
Site Info
Top Contributors:
  1    supper88 32766
  2    admin 32671
  3    Whisky 10080
  4    Shark_ 8911
  5    creativelivenew 8706
  6    whathesupa 2799
  7    candymypost 840
  8    hvnteam 629
  9    vuong87 3


Articles:
  This Hour: 0
  Today: 0
  This Month: 58
  All Time: 515616


Torrents:
  Today: 0
  Yesterday: 0
  All Time: 156702


Membership:
  Registered Today :0
  This Hour:0
  This Month:0
  Total:14
  Banned:1

{online}
{inform_torrent}
Friend:
We Recomend
Trend
Trend
Ad1

Search In Site

TV Shows : Sky Movies - Steve Jobs (2015)
 

http://i76.fastpic.ru/big/2015/1120/80/c642c102789db03c52cbf504c21aad80.jpg
Sky Movies - Steve Jobs (2015)
HDTV | 1280x720 | .MKV/AVC @ 2287 Kbps | 21mn 45s | Audio: English AC3 384 kbps, 2 channels | Subs: None | 424 MiB
Genre: Documentary

"The life of Apple mastermind Steve Jobs (Michael Fassbender) is revealed in this hard-hitting biopic from director Danny Boyle and scriptwriter Aaron Sorkin (The Social Network). Fassbender delivers a layered, balanced performance as the mercurial Jobs with Kate Winslet similarly impressive as his marketing partner and all-round conscience Joanna Hoffman. Unconventionally based backstage at three different product launches spanning 1984 to 1998 with the iMac, this dramatised profile shows how a successful biopic should be made."

General
Unique ID
: 0 (0x0)
Complete name : steve.jobs.sky.movies.special.mkv
Format
: Matroska
Format version : Version 4 / Version 2
File size
: 424 MiB
Duration
: 21mn 45s
Overall bit rate : 2 726 Kbps

Video
ID : 1
Format
: AVC
Format/Info
: Advanced Video Codec
Format profile : [email protected]
Format settings, CABAC : Yes
Format settings, ReFrames : 5 frames
Codec ID
: V_MPEG4/ISO/AVC
Duration
: 21mn 45s
Bit rate
: 2 287 Kbps
Width
: 1 280 pixels
Height
: 720 pixels
Display aspect ratio : 16:9
Frame rate mode : Constant
Frame rate
: 25.000 fps
Color space
: YUV
Chroma subsampling

: 4:2:0
Bit depth
: 8 bits
Scan type
: Progressive
Bits/(Pixel*Frame)

: 0.099
Stream size
: 356 MiB (84%)
Writing library : x264 core 148 r2638 7599210
Encoding settings: cabac=1 / ref=5 / deblock=1:0:0 / analyse=0x3:0x113 / me=umh / subme=8 / psy=1 / psy_rd=1.00:0.00 / mixed_ref=1 / me_range=16 / chroma_me=1 / trellis=1 / 8x8dct=1 / cqm=0 / deadzone=21,11 / fast_pskip=1 / chroma_qp_offset=-2 / threads=12 / lookahead_threads=2 / sliced_threads=0 / nr=0 / decimate=1 / interlaced=0 / bluray_compat=0 / constrained_intra=0 / bframes=3 / b_pyramid=2 / b_adapt=2 / b_bias=0 / direct=3 / weightb=1 / open_gop=0 / weightp=2 / keyint=250 / keyint_min=25 / scenecut=40 / intra_refresh=0 / rc_lookahead=50 / rc=crf / mbtree=1 / crf=20.0 / qcomp=0.60 / qpmin=0 / qpmax=69 / qpstep=4 / ip_ratio=1.40 / aq=1:1.00
Default
: Yes
Forced
: No
Color range
: Limited
Matrix coefficients

: BT.709

Audio
ID : 2
Format
: AC-3
Format/Info
: Audio Coding 3
Mode extension : CM (complete main)
Format settings, Endianness : Big
Codec ID
: A_AC3
Duration
: 21mn 45s
Bit rate mode : Constant
Bit rate
: 384 Kbps
Channel(s)
: 2 channels
Channel positions: Front: L R
Sampling rate : 48.0 KHz
Compression mode : Lossy
Stream size
: 59.8 MiB (14%)
Title
: English
Language
: English
Default
: Yes
Forced
: No

Screenshots:

http://i74.fastpic.ru/big/2015/1120/51/2e0295756a5f3c6dfcdad4731b0b1951.jpg

http://i74.fastpic.ru/big/2015/1120/95/60c0acac9582b49ac72d763faa27fe95.jpg

http://i75.fastpic.ru/big/2015/1120/48/d50a17791b7587a9a1bd7e668bc5f748.jpg

http://i74.fastpic.ru/big/2015/1120/0d/2e652f89f3454f8a1a9d83dddb61990d.jpg


DOWNLOAD LINKS:
Buy Premium To Support Me & Get Resumable Support & Max Speed


Links are Interchangeable - No Password - Single Extraction



Ad2

 
 
 
Dear visitor, you went to the site as an unregistered user. We encourage you to register or enter the site under your name.
 
   
 
 (Votes #: 0)