2013Zone For Latest Downloads

 
     
 
Legal Downloads » Music » High Inergy ‎- Turnin' On (1977) [2014 BBR]
Menu
Home Applications
Games Movies
Music TV Shows
Torrents Graphics

Sitemap

RSS
 
Advanced Search
Last News
Site Info
Top Contributors:
  1    supper88 32766
  2    admin 32693
  3    Whisky 10080
  4    Shark_ 8911
  5    creativelivenew 8706
  6    whathesupa 2799
  7    candymypost 840
  8    hvnteam 629
  9    vuong87 3


Articles:
  This Hour: 0
  Today: 0
  This Month: 30
  All Time: 515561


Torrents:
  Today: 0
  Yesterday: 0
  All Time: 156684


Membership:
  Registered Today :0
  This Hour:0
  This Month:0
  Total:14
  Banned:1

{online}
{inform_torrent}
Friend:
We Recomend
Trend
Trend
Ad1

Search In Site

Music : High Inergy ‎- Turnin' On (1977) [2014 BBR]
 
http://i73.fastpic.ru/big/2015/1211/cb/b64c7736f75acc733af769df4e5b9bcb.jpg

High Inergy ‎- Turnin' On (1977) [2014 BBR]
EAC Rip | FLAC (Tracks) +CUE, LOG | 473 MB | Covers Included
Soul | Label: BBR Records | Catalog Number:CDBBRX0304

"HIGH INERGY were an R&B and Soul girl group from Pasadena, Ca. who signed with Berry Gordy's legendary Motown Records on his self-named Gordy subsidiary in 1977 and went on to have a strong career chalking up nine R&B hits and recording eight albums."

Exact Audio Copy V1.0 beta 3 from 29. August 2011

EAC extraction logfile from 8. December 2015, 19:29

High Inergy / Turnin' On

Used drive : GENERIC CDRCB05 Adapter: 4 ID: 0

Read mode : Secure
Utilize accurate stream : Yes
Defeat audio cache : Yes
Make use of C2 pointers : No

Read offset correction

: 102
Overread into Lead-In and Lead-Out : No
Fill up missing offset samples with silence : Yes
Delete leading and trailing silent blocks : No
Null samples used in CRC calculations : Yes
Used interface
: Native Win32 interface for Win NT & 2000
Gap handling
: Appended to previous track

Used output format : User Defined Encoder
Selected bitrate : 1024 kBit/s
Quality : High
Add ID3 tag : No
Command line compressor : C:\Program Files\FLAC\flac.exe
Additional command line options : -8 -V -T "ARTIST=%artist%" -T "TITLE=%title%" -T "ALBUM=%albumtitle%" -T "DATE=%year%" -T "TRACKNUMBER=%tracknr%" -T "GENRE=%genre%" -T "PERFORMER=%albuminterpret%" -T "COMPOSER=%composer%" %haslyrics%--tag-from-file=LYRICS="%lyricsfile%"%haslyrics% -T "ALBUMARTIST=%albumartist%" -T "DISCNUMBER=%cdnumber%" -T "TOTALDISCS=%totalcds%" -T "TOTALTRACKS=%numtracks%" -T "COMMENT=%comment%" %source% -o %dest%

TOC of the extracted CD Track | Start | Length | Start sector | End sector
--1 | 0:00.00 | 4:10.17 | 0 | 18766 2 | 4:10.17 | 5:13.49 | 18767 | 42290 3 | 9:23.66 | 4:40.13 | 42291 | 63303 4 | 14:04.04 | 4:18.18 | 63304 | 82671 5 | 18:22.22 | 3:00.52 | 82672 | 96223 6 | 21:22.74 | 3:42.38 | 96224 | 112911 7 | 25:05.37 | 3:20.38 | 112912 | 127949 8 | 28:26.00 | 4:06.34 | 127950 | 146433 9 | 32:32.34 | 3:49.46 | 146434 | 163654
10 | 36:22.05 | 3:34.34 | 163655 | 179738
11 | 39:56.39 | 3:08.43 | 179739 | 193881

Track 1 Filename F:\POSTS\High Inergy ‎- Turnin' On (1977) [2014 BBR]\01 - Love Is All You Need.wav Pre-gap length 0:00:02.00 Peak level 96.5 %
Extraction speed 2.4 X
Track quality 100.0 %
Test CRC 45770981
Copy CRC 45770981
Accurately ripped (confidence 3) [9614FBC4] (AR v2)
Copy OK

Track 2 Filename F:\POSTS\High Inergy ‎- Turnin' On (1977) [2014 BBR]\02 - You Can't Turn Me Off (In The Middle Of Turning Me On).wav Pre-gap length 0:00:01.21 Peak level 96.5 %
Extraction speed 2.7 X
Track quality 100.0 %
Test CRC F5FDF9D1
Copy CRC F5FDF9D1
Accurately ripped (confidence 3) [E6EF1A9F] (AR v2)
Copy OK

Track 3 Filename F:\POSTS\High Inergy ‎- Turnin' On (1977) [2014 BBR]\03 - Some Kinda Magic.wav Pre-gap length 0:00:01.45 Peak level 96.5 %
Extraction speed 2.6 X
Track quality 99.9 %
Test CRC 7F3653BD
Copy CRC 7F3653BD
Accurately ripped (confidence 3) [8CC85987] (AR v2)
Copy OK

Track 4 Filename F:\POSTS\High Inergy ‎- Turnin' On (1977) [2014 BBR]\04 - Searchin' (I've Got To Find Love).wav Pre-gap length 0:00:01.22 Peak level 96.5 %
Extraction speed 3.2 X
Track quality 100.0 %
Test CRC EFA66300
Copy CRC EFA66300
Accurately ripped (confidence 3) [E059AE33] (AR v2)
Copy OK

Track 5 Filename F:\POSTS\High Inergy ‎- Turnin' On (1977) [2014 BBR]\05 - Ain't No Love Left (In My Heart For You).wav Pre-gap length 0:00:01.11 Peak level 96.5 %
Extraction speed 3.1 X
Track quality 100.0 %
Test CRC 4ED5824B
Copy CRC 4ED5824B
Accurately ripped (confidence 3) [94D6397E] (AR v2)
Copy OK

Track 6 Filename F:\POSTS\High Inergy ‎- Turnin' On (1977) [2014 BBR]\06 - Let Me Get Close To You.wav Pre-gap length 0:00:00.48 Peak level 96.5 %
Extraction speed 3.4 X
Track quality 100.0 %
Test CRC 74059859
Copy CRC 74059859
Accurately ripped (confidence 3) [14CA9E16] (AR v2)
Copy OK

Track 7 Filename F:\POSTS\High Inergy ‎- Turnin' On (1977) [2014 BBR]\07 - Save It For A Rainy Day.wav Pre-gap length 0:00:00.44 Peak level 96.5 %
Extraction speed 3.0 X
Track quality 99.9 %
Test CRC 0F7E52B8
Copy CRC 0F7E52B8
Accurately ripped (confidence 3) [8445CF09] (AR v2)
Copy OK

Track 8 Filename F:\POSTS\High Inergy ‎- Turnin' On (1977) [2014 BBR]\08 - Could This Be Love.wav Pre-gap length 0:00:02.31 Peak level 96.5 %
Extraction speed 3.8 X
Track quality 100.0 %
Test CRC A64AF9EF
Copy CRC A64AF9EF
Accurately ripped (confidence 3) [10DD085D] (AR v2)
Copy OK

Track 9 Filename F:\POSTS\High Inergy ‎- Turnin' On (1977) [2014 BBR]\09 - High School.wav Pre-gap length 0:00:01.35 Peak level 96.5 %
Extraction speed 3.9 X
Track quality 100.0 %
Test CRC A2725155
Copy CRC A2725155
Accurately ripped (confidence 3) [EE9F0FB1] (AR v2)
Copy OK

Track 10 Filename F:\POSTS\High Inergy ‎- Turnin' On (1977) [2014 BBR]\10 - You Can't Turn Me Off (In The Middle Of Turning Me On) (Single Version).wav Pre-gap length 0:00:03.53 Peak level 96.5 %
Extraction speed 3.5 X
Track quality 99.9 %
Test CRC 9DA4EE13
Copy CRC 9DA4EE13
Accurately ripped (confidence 3) [189F9DF6] (AR v2)
Copy OK

Track 11 Filename F:\POSTS\High Inergy ‎- Turnin' On (1977) [2014 BBR]\11 - Love Is All You Need (Single Version).wav Pre-gap length 0:00:01.55 Peak level 96.5 %
Extraction speed 3.5 X
Track quality 99.9 %
Test CRC D557EDE1
Copy CRC D557EDE1
Accurately ripped (confidence 2) [4FC286D2] (AR v2)
Copy OK

All tracks accurately ripped

No errors occurred

End of status report

==== Log checksum 8CFE24479A02A46FA5DB0A4EEC326370E3BBBAB3C8D937F3FF44563FDF89CD34 ====

Tracklist:
01. LOVE IS ALL YOU NEED
02. YOU CAN'T TURN ME OFF (IN THE MIDDLE OF TURNING ME ON)
03. SOME KINDA MAGIC
04. SEARCHIN' (I'VE GOT TO FIND MY LOVE)
05. AIN'T NO LOVE LEFT (IN MY HEART FOR YOU)
06. LET ME GET CLOSE TO YOU
07. SAVE IT FOR A RAINY DAY
08. COULD THIS BE LOVE
09. HIGH SCHOOL
BONUS TRACKS
10. YOU CAN'T TURN ME OFF (IN THE MIDDLE OF TURNING ME ON) (Single Version)
11. LOVE IS ALL YOU NEED (Single Version)
DOWNLOAD LINKS:
Buy Premium To Support Me & Get Resumable Support & Max Speed


Links are Interchangeable - No Password - Single Extraction

High Inergy ‎- Turnin' On (1977) [2014 BBR] Fast Download


Ad2

 
 
 
Dear visitor, you went to the site as an unregistered user. We encourage you to register or enter the site under your name.
 
   
 
 (Votes #: 0)