2013Zone For Latest Downloads

 
     
 
Legal Downloads » Music » Hank Crawford - Wildflower (1973) {1987 CBS Associated}
Menu
Home Applications
Games Movies
Music TV Shows
Torrents Graphics

Sitemap

RSS
 
Advanced Search
Last News
Site Info
Top Contributors:
  1    supper88 32766
  2    admin 32671
  3    Whisky 10080
  4    Shark_ 8911
  5    creativelivenew 8706
  6    whathesupa 2799
  7    candymypost 840
  8    hvnteam 629
  9    vuong87 3


Articles:
  This Hour: 0
  Today: 0
  This Month: 58
  All Time: 515616


Torrents:
  Today: 0
  Yesterday: 0
  All Time: 156702


Membership:
  Registered Today :0
  This Hour:0
  This Month:0
  Total:14
  Banned:1

{online}
{inform_torrent}
Friend:
We Recomend
Trend
Trend
Ad1

Search In Site

Music : Hank Crawford - Wildflower (1973) {1987 CBS Associated}
 
http://i77.fastpic.ru/big/2016/0512/33/7c80e473f10073ae4066e731a3380033.jpg

Hank Crawford - Wildflower (1973) {1987 CBS Associated}
EAC Rip | FLAC with CUE and log | scans | 190 mb
MP3 CBR 320kbps | RAR | 90 mb
Genre: jazz, jazz soul, jazz funk

Wildflower is the 1973 album by jazz musician Hank Crawford. This was released by the CBS Associated label in 1987, which was Columbia Records' digital output for some releases before they had a proper reissue department. This was also the first digital release for this album. The CD was manufactured in Japan.
Hank Crawford's '60s sides for Atlantic rightfully established him among the preeminent soul-jazz saxophonists. For pure phrasing and feel, Crawford was in a class by himself. When Creed Taylor kicked off CTI in 1970, he brought Crawford on board immediately. This date from 1973 - one of eight cut between 1971 and 1978 - is Crawford's strongest for the label and one of the better records of his career, though jazz purists would never agree. Produced and arranged by Bob James with a smoking cast that includes Joe Beck, Idris Muhammad, Richard Tee, and Bob Cranshaw, as well as a brass section of crack New York studio cats, Wildflower is the album Crawford had been trying to make since 1971. Recorded in two days, the band provides a slick, right, colorful platform for Crawford's melodic improvisation that is rooted in the art of the phrase. One long note held on "Mr. Blues" or a series of carefully articulated verbal feelings, such as on "Corazon," may not step out of the groove, but make it both a deeper blue and as wide as the human heart's complexity. On the title cut, with a vocal chorus in the background, Crawford turns a pop melody into a torrent of raw emotionalism and savvy groove-conscious glory. James' charts are big but never obtrusive; they point in one direction only, to bring that huge soul sound out of Crawford's alto - check out the way the melody line breaks down into the solo in Stevie Wonder's "You've Got It Bad Girl," or the backbeat arpeggio exercises in "Good Morning Heartache." This record is so hot the only soul-jazz it can be compared to in both its contemporary form and funky feel are Grover Washington's Feels So Good and Mister Magic issues. In other words, Crawford's Wildflower is indispensable as a shining example of '70s groove jazz at its best.


http://i79.fastpic.ru/big/2016/0512/0c/a7237430f9f5af593b483739721a860c.jpg

1. Corazon
2. Wildflower
3. Mr. Blues
4. You've Got It Bad Girl
5. Good Morning Heartache
--
Hank Crawford-alto saxophone
Richard Tee-piano, organ
Bob Cranshaw-bass
Idris Muhammad-drums
Joe Beck-guitar
Ruben Bassini-percussion
George Devens-percussion
David Friedman-percussion
Arthur Jenkins-percussion
Phil Kraus-percussion
Ralph McDonald-percussion
Bernie Glow-trumptet, flugelhorn
Alan Rubin-trumpet
Marvin Stamm-trumpet
Wayne Andre-trombone
Paul Faulise-trombone
Tony Studd-trombone, bass trombone
Jimmy Buffington-French horn
Brooks Peyton-French horn
Bill Eaton-vocals
Hilda Harris-vocals
Randy Peyton-vocals
Maeretha Stewart-vocals

Produced by Creed Taylor
Arranged and conducted by Bob James
Recored at Van Gelder studios, June 28-29, 1973
Engineer: Rudy Van Gelder

CD mastered and engineered by Frank Decker at CBS Studios, NY
Compact disc Made In Japan

http://i77.fastpic.ru/big/2016/0512/50/fb181f882ebecb39adb4b351790ced50.jpg EAC Log EAC extraction logfile from 25. January 2007, 20:13 for CD
Hank Crawford / Wildflower

Used drive : LITE-ON DVDRW SOHW-1633S Adapter: 0 ID: 0
Read mode : Secure with NO C2, accurate stream, disable cache
Read offset correction : 12
Overread into Lead-In and Lead-Out : No

Used output format : Internal WAV Routines 44.100 Hz; 16 Bit; Stereo

Other options :
Fill up missing offset samples with silence : Yes
Delete leading and trailing silent blocks : No
Installed external ASPI interface

Track 1
Filename D:\FLAC\Hank Crawford - Wildflower (1973) [FLAC] {1987 CBS Associated}\01 - Corazon.wav Pre-gap length 0:00:02.00 Peak level 100.0 %
Track quality 100.0 %
Test CRC 3B1F8422
Copy CRC 3B1F8422
Copy OK

Track 2
Filename D:\FLAC\Hank Crawford - Wildflower (1973) [FLAC] {1987 CBS Associated}\02 - Wildflower.wav Pre-gap length 0:00:01.89 Peak level 92.2 %
Track quality 100.0 %
Test CRC F5BAF7F8
Copy CRC F5BAF7F8
Copy OK

Track 3
Filename D:\FLAC\Hank Crawford - Wildflower (1973) [FLAC] {1987 CBS Associated}\03 - Mr. Blues.wav Pre-gap length 0:00:02.33 Peak level 100.0 %
Track quality 100.0 %
Test CRC F67F610C
Copy CRC F67F610C
Copy OK

Track 4
Filename D:\FLAC\Hank Crawford - Wildflower (1973) [FLAC] {1987 CBS Associated}\04 - You've Got It Bad Girl.wav Pre-gap length 0:00:02.22 Peak level 100.0 %
Track quality 100.0 %
Test CRC 266785AE
Copy CRC 266785AE
Copy OK

Track 5
Filename D:\FLAC\Hank Crawford - Wildflower (1973) [FLAC] {1987 CBS Associated}\05 - Good Morning Heartache.wav Pre-gap length 0:00:03.40 Peak level 83.6 %
Track quality 100.0 %
Test CRC 2BF44CB9
Copy CRC 2BF44CB9
Copy OK

No errors occured

End of status report

http://i80.fastpic.ru/big/2016/0512/bd/ccffc3a7f089d652f93361bd41b595bd.jpg

DOWNLOAD LINKS:
Buy Premium To Support Me & Get Resumable Support & Max Speed


Links are Interchangeable - No Password - Single Extraction



Ad2

 
 
 
Dear visitor, you went to the site as an unregistered user. We encourage you to register or enter the site under your name.
 
   
 
 (Votes #: 0)