2013Zone For Latest Downloads

 
     
 
Legal Downloads » Music » Hampton Hawes Trio - Volume 1 (1955) {2000 20bit K2 Super Coding}
Menu
Home Applications
Games Movies
Music TV Shows
Torrents Graphics

Sitemap

RSS
 
Advanced Search
Last News
Site Info
Top Contributors:
  1    supper88 32766
  2    admin 32691
  3    Whisky 10080
  4    Shark_ 8911
  5    creativelivenew 8706
  6    whathesupa 2799
  7    candymypost 840
  8    hvnteam 629
  9    vuong87 3


Articles:
  This Hour: 0
  Today: 0
  This Month: 38
  All Time: 515597


Torrents:
  Today: 0
  Yesterday: 0
  All Time: 156683


Membership:
  Registered Today :0
  This Hour:0
  This Month:0
  Total:14
  Banned:1

{online}
{inform_torrent}
Friend:
We Recomend
Trend
Trend
Ad1

Search In Site

Music : Hampton Hawes Trio - Volume 1 (1955) {2000 20bit K2 Super Coding}
 
http://i77.fastpic.ru/big/2016/0512/f3/7cdb6b5dbed509a7bdcd126ba35950f3.jpg

Hampton Hawes Trio - Volume 1 (1955) {2000 20bit K2 Super Coding}
EAC Rip | FLAC with CUE and log | scans | 137 mb
MP3 CBR 320kbps | RAR | 89 mb
Genre: jazz

Volume 1 is the 1955 album by The Hampton Hawes Trio.iginally released on the Contemporary label, this edition from Fantasy Jazz released on 15 August, 2000 was remastered using 20bit K2 Super Coding. Only 10,000 copies of this edition were made.
The first of pianist Hampton Hawes' long string of Contemporary recordings features him in his early prime in a trio with bassist Red Mitchell and drummer Chuck Thompson. In addition to three of his basic originals, Hawes performs fresh and swinging versions of seven standards, making such overplayed tunes such as "I Got Rhythm," "What Is This Thing Called Love?," and "All the Things You Are" really come alive. A gem, the first of many classic Hawes Contemporary dates.


http://i80.fastpic.ru/big/2016/0512/a5/3fe835a1fe4a4ee924f85c2065a632a5.jpg

01. I Got Rhythm
02. What Is This Thing Called Love
03. Blues The Most
04. So In Love
05. Feelin' Fine
06. Hamp's Blues
07. Easy Living
08. All The Things You Are
09. These Foolish Things (Remind Me Of You)
10. Carioca

--
Hampton Hawes-piano
Red Mitchell-bass
Chuck Thompson-drums

Produced by Lester Koenig
Recorded in Los Angeles; June 28, 1955
Recording engineer: John Palladino

Mastering engineer: Shigeo Miyamoto under supervision of Tamaki Beck for JVC Studios
This album was remastered using 20-bit A/D Converter with digital K2 interface
--
West Coast jazz of the 1950s was known for "cool school" textures and less rhythmic drive than its East Coast counterpart, but Hampton Hawes represented a different side of California jazz, playing intense hard bop with as much focused energy as any resident New Yorker. This 1955 recording was the first and the most potent of Hawes's series of trio recordings with Red Mitchell on bass and Chuck Thompson on drums, revealing the pianist as one of the finest musicians working in the bop idiom. He could reel off choruses of flying single-note lines with technique and invention that would rival Bud Powell's, or switch to extended passages in forceful block chords. Hawes is equally at home here on standards, ballads, and his original bop blues tunes, pushing harmonic extension to the limits. In the process, he develops a personal weave of joy and passion that represents one of the high points of jazz piano in the era.


http://i78.fastpic.ru/big/2016/0512/cf/c6f3af0c591cfe7eaaa8e37b08cc75cf.jpg
EAC Log EAC extraction logfile from 16. September 2007, 12:16 for CD
Hampton Hawes Trio / Volume 1 (20bit K2)

Used drive : LITE-ON DVDRW SOHW-1633S Adapter: 0 ID: 0
Read mode : Secure with NO C2, accurate stream, disable cache
Read offset correction : 12
Overread into Lead-In and Lead-Out : No

Used output format : Internal WAV Routines 44.100 Hz; 16 Bit; Stereo

Other options :
Fill up missing offset samples with silence : Yes
Delete leading and trailing silent blocks : No
Installed external ASPI interface

Track 1
Filename D:\FLAC\Hampton Hawes Trio - Volume 1 (1955) [FLAC] {2000 20bit K2 Super Coding}\01 - I Got Rhythm.wav Pre-gap length 0:00:02.00 Peak level 94.1 %
Track quality 100.0 %
Test CRC CBC89ED3
Copy CRC CBC89ED3
Copy OK

Track 2
Filename D:\FLAC\Hampton Hawes Trio - Volume 1 (1955) [FLAC] {2000 20bit K2 Super Coding}\02 - What Is This Thing Called Love.wav Pre-gap length 0:00:02.56 Peak level 94.0 %
Track quality 100.0 %
Test CRC F9ACF759
Copy CRC F9ACF759
Copy OK

Track 3
Filename D:\FLAC\Hampton Hawes Trio - Volume 1 (1955) [FLAC] {2000 20bit K2 Super Coding}\03 - Blues The Most.wav Pre-gap length 0:00:02.46 Peak level 94.1 %
Track quality 99.9 %
Test CRC F4AF6E52
Copy CRC F4AF6E52
Copy OK

Track 4
Filename D:\FLAC\Hampton Hawes Trio - Volume 1 (1955) [FLAC] {2000 20bit K2 Super Coding}\04 - So In Love.wav Pre-gap length 0:00:02.60 Peak level 92.5 %
Track quality 100.0 %
Test CRC FA2AAF3A
Copy CRC FA2AAF3A
Copy OK

Track 5
Filename D:\FLAC\Hampton Hawes Trio - Volume 1 (1955) [FLAC] {2000 20bit K2 Super Coding}\05 - Feelin' Fine.wav Pre-gap length 0:00:02.40 Peak level 94.0 %
Track quality 100.0 %
Test CRC 80996EF7
Copy CRC 80996EF7
Copy OK

Track 6
Filename D:\FLAC\Hampton Hawes Trio - Volume 1 (1955) [FLAC] {2000 20bit K2 Super Coding}\06 - Hamp's Blues.wav Pre-gap length 0:00:02.06 Peak level 94.1 %
Track quality 100.0 %
Test CRC A3B236CC
Copy CRC A3B236CC
Copy OK

Track 7
Filename D:\FLAC\Hampton Hawes Trio - Volume 1 (1955) [FLAC] {2000 20bit K2 Super Coding}\07 - Easy Living.wav Pre-gap length 0:00:02.76 Peak level 94.1 %
Track quality 100.0 %
Test CRC C9B01313
Copy CRC C9B01313
Copy OK

Track 8
Filename D:\FLAC\Hampton Hawes Trio - Volume 1 (1955) [FLAC] {2000 20bit K2 Super Coding}\08 - All The Things You Are.wav Pre-gap length 0:00:01.89 Peak level 94.1 %
Track quality 100.0 %
Test CRC 001AC95A
Copy CRC 001AC95A
Copy OK

Track 9
Filename D:\FLAC\Hampton Hawes Trio - Volume 1 (1955) [FLAC] {2000 20bit K2 Super Coding}\09 - These Foolish Things (Remind Me Of You).wav Pre-gap length 0:00:02.42 Peak level 93.8 %
Track quality 100.0 %
Test CRC ABA05B12
Copy CRC ABA05B12
Copy OK

Track 10
Filename D:\FLAC\Hampton Hawes Trio - Volume 1 (1955) [FLAC] {2000 20bit K2 Super Coding}\10 - Carioca.wav Pre-gap length 0:00:01.96 Peak level 94.0 %
Track quality 100.0 %
Test CRC 6E943C38
Copy CRC 6E943C38
Copy OK

No errors occured

End of status report
DOWNLOAD LINKS:
Buy Premium To Support Me & Get Resumable Support & Max Speed


Links are Interchangeable - No Password - Single Extraction

Hampton Hawes Trio - Volume 1 (1955) {2000 20bit K2 Super Coding} Fast Download


Ad2

 
 
 
Dear visitor, you went to the site as an unregistered user. We encourage you to register or enter the site under your name.
 
   
 
 (Votes #: 0)