2013Zone For Latest Downloads

 
     
 
Legal Downloads » Torrents » Eurovision Song Contest 2012 (1st Semifinal) 720p
Menu
Home Applications
Games Movies
Music TV Shows
Torrents Graphics

Sitemap

RSS
 
Advanced Search
Last News
Site Info
Top Contributors:
  1    supper88 32766
  2    admin 32723
  3    Whisky 10080
  4    Shark_ 8911
  5    creativelivenew 8706
  6    whathesupa 2799
  7    candymypost 840
  8    hvnteam 629
  9    vuong87 3


Articles:
  This Hour: 0
  Today: 0
  This Month: 31
  All Time: 515496


Torrents:
  Today: 0
  Yesterday: 0
  All Time: 156680


Membership:
  Registered Today :0
  This Hour:0
  This Month:0
  Total:14
  Banned:1

{online}
{inform_torrent}
Friend:
Full Download Scripts
Torrent Download
Trend
Trend

Search In Site

Torrents : Eurovision Song Contest 2012 (1st Semifinal) 720p
 

Torrent name:Eurovision Song Contest 2012 (1st Semifinal) 720p

Seeds:5

Leechers:40

Health: 

Total size:6.51 GB

Torrent added:2012-05-23 20:09:25

Info hash:0F40B6703446D56686E5E27E49174FDEFA82B72F


Description:
 

Source that have been used for encoding:
VIDEO SOURCE: MPEG2 4:2:2, 1080/50i, 35 Mbps
AUDIO SOURCE: Dolby E 5.1, 24-bit

General
Unique ID                        : 205087561721039987582590529953496824066 (0x9A4A6D796BD8BA448FDE64763A9FF902)
Format                           : Matroska
Format version                   : Version 2
File size                        : 6.51 GiB
Duration                         : 1h 45mn
Overall bit rate                 : 8 813 Kbps
Encoded date                     : UTC 2012-05-23 05:29:48
Writing application              : mkvmerge v5.5.0 ('Healer') built on Apr  6 2012 21:43:24
Writing library                  : libebml v1.2.3 + libmatroska v1.3.0

Video
ID                               : 1
Format                           : AVC
Format/Info                      : Advanced Video Codec
Format profile                   : [email protected]
Format settings, CABAC           : Yes
Format settings, ReFrames        : 5 frames
Codec ID                         : V_MPEG4/ISO/AVC
Duration                         : 1h 45mn
Bit rate                         : 7 128 Kbps
Width                            : 1 280 pixels
Height                           : 720 pixels
Display aspect ratio             : 16:9
Frame rate                       : 50.000 fps
Color space                      : YUV
Chroma subsampling               : 4:2:0
Bit depth                        : 8 bits
Scan type                        : Progressive
Bits/(Pixel*Frame)               : 0.155
Stream size                      : 5.27 GiB (81%)
Writing library                  : x264 core 120 r2164 da19765
Language                         : English

Audio
ID                               : 2
Format                           : DTS
Format/Info                      : Digital Theater Systems
Codec ID                         : A_DTS
Duration                         : 1h 45mn
Bit rate mode                    : Constant
Bit rate                         : 1 510 Kbps
Channel(s)                       : 6 channels
Channel positions                : Front: L C R, Side: L R, LFE
Sampling rate                    : 48.0 KHz
Bit depth                        : 24 bits
Compression mode                 : Lossy
Delay relative to video          : 3ms
Stream size                      : 1.12 GiB (17%)
Language                         : English

Download utorrent client from http://www.utorrent.com/ before downloading from below magnet link

magnet:?xt=urn:btih:0F40B6703446D56686E5E27E49174FDEFA82B72F


Eurovision Song Contest 2012 (1st Semifinal) 720p Fast Download



 
 
 
Dear visitor, you went to the site as an unregistered user. We encourage you to register or enter the site under your name.
 
   
 
 (Votes #: 0)