2013Zone For Latest Downloads

 
     
 
Legal Downloads » Torrents » Maria Gadu Ao Vivo Multishow Coletanea 2010 (+2 CDs) - 420p x264
Menu
Home Applications
Games Movies
Music TV Shows
Torrents Graphics

Sitemap

RSS
 
Advanced Search
Last News
Site Info
Top Contributors:
  1    supper88 32766
  2    admin 32723
  3    Whisky 10080
  4    Shark_ 8911
  5    creativelivenew 8706
  6    whathesupa 2799
  7    candymypost 840
  8    hvnteam 629
  9    vuong87 3


Articles:
  This Hour: 0
  Today: 0
  This Month: 31
  All Time: 515496


Torrents:
  Today: 0
  Yesterday: 0
  All Time: 156680


Membership:
  Registered Today :0
  This Hour:0
  This Month:0
  Total:14
  Banned:1

{online}
{inform_torrent}
Friend:
Full Download Scripts
Torrent Download
Trend
Trend

Search In Site

Torrents : Maria Gadu Ao Vivo Multishow Coletanea 2010 (+2 CDs) - 420p x264
 

Torrent name:Maria Gadu Ao Vivo Multishow Coletanea 2010 (+2 CDs) - 420p x264

Seeds:3

Leechers:2

Health: 

Total size:866.38 MB

Torrent added:2012-05-23 15:04:11

Info hash:6DB141FD88B016559E0091F90B285881FAA79D8A


Description:
 

Coletanea Multishow 2010 Maria Gadu = 1 DVD + 2 CDs Ao Vivo (Mp3 256kbps) + Todos os Extras do DVD. 
Estao gravados em maximo setting para compactacao demorou 11 horas no phenom X3 2.8ghz. Esta em alta qualidade e audio tambem.

Espero que gostem abra├žos.


-----------------------------
Exemplo do aquivo principal.

Format                                   : Matroska
Format version                           : Version 2
File size                                : 484 MiB
Duration                                 : 1h 39mn
Overall bit rate mode                    : Variable
Overall bit rate                         : 682 Kbps
Encoded date                             : UTC 2012-05-19 22:03:02
Writing application                      : mkvmerge v4.8.0 ('I Got The...') built on May 24 2011 03:12:58
Writing library                          : libebml v1.2.0 + libmatroska v1.1.0

Video
ID                                       : 1
Format                                   : AVC
Format/Info                              : Advanced Video Codec
Format profile                           : [email protected]
Format settings, CABAC                   : Yes
Format settings, ReFrames                : 7 frames
Muxing mode                              : Header stripping
Codec ID                                 : V_MPEG4/ISO/AVC
Duration                                 : 1h 39mn
Bit rate                                 : 572 Kbps
Width                                    : 720 pixels
Height                                   : 400 pixels
Display aspect ratio                     : 16:9
Frame rate                               : 29.970 fps
Color space                              : YUV
Chroma subsampling                       : 4:2:0
Bit depth                                : 8 bits
Scan type                                : Progressive
Bits/(Pixel*Frame)                       : 0.066
Stream size                              : 406 MiB (84%)
Writing library                          : x264 core 124 r2197 69a0443


Audio
ID                                       : 2
Format                                   : Vorbis
Format settings, Floor                   : 1
Codec ID                                 : A_VORBIS
Duration                                 : 1h 39mn
Bit rate mode                            : Variable
Bit rate                                 : 96.0 Kbps
Channel(s)                               : 2 channels
Sampling rate                            : 48.0 KHz
Compression mode                         : Lossy
Stream size                              : 68.2 MiB (14%)
Writing library                          : libVorbis (Omnipresent) (20120203 (Omnipresent))
Default                                  : Yes
Forced                                   : No

Download utorrent client from http://www.utorrent.com/ before downloading from below magnet link

magnet:?xt=urn:btih:6DB141FD88B016559E0091F90B285881FAA79D8A


Maria Gadu Ao Vivo Multishow Coletanea 2010 (+2 CDs) - 420p x264 Fast Download



 
 
 
Dear visitor, you went to the site as an unregistered user. We encourage you to register or enter the site under your name.
 
   
 
 (Votes #: 0)