2013Zone For Latest Downloads

 
     
 
Legal Downloads » Torrents » The Lives of Others [2006] 720p BRRip H264 AC3 - CODY
Menu
Home Applications
Games Movies
Music TV Shows
Torrents Graphics

Sitemap

RSS
 
Advanced Search
Last News
Site Info
Top Contributors:
  1    supper88 32766
  2    admin 32711
  3    Whisky 10080
  4    Shark_ 8911
  5    creativelivenew 8706
  6    whathesupa 2799
  7    candymypost 840
  8    hvnteam 629
  9    vuong87 3


Articles:
  This Hour: 0
  Today: 0
  This Month: 0
  All Time: 515503


Torrents:
  Today: 0
  Yesterday: 0
  All Time: 156678


Membership:
  Registered Today :0
  This Hour:0
  This Month:0
  Total:14
  Banned:1

{online}
{inform_torrent}
Friend:
Full Download Scripts
Torrent Download
Trend
Trend

Search In Site

Torrents : The Lives of Others [2006] 720p BRRip H264 AC3 - CODY
 

Torrent name:The Lives of Others [2006] 720p BRRip H264 AC3 - CODY

Seeds:4

Leechers:15

Health: 

Total size:2.02 GB

Torrent added:2012-05-23 21:48:52

Info hash:29428FEF004A3D09DB9948DDF7892684E7244359


Description:
 

General
Complete name                            : The Lives of Others [2006] 720p BRRip H264 AC3 - CODY.mp4
Format                                   : MPEG-4
Format profile                           : Base Media
Codec ID                                 : isom
File size                                : 2.02 GiB
Duration                                 : 2h 17mn
Overall bit rate mode                    : Variable
Overall bit rate                         : 2 099 Kbps
Encoded date                             : UTC 2012-05-22 00:46:01

Video
ID                                       : 1
Format                                   : AVC
Format/Info                              : Advanced Video Codec
Format profile                           : [email protected]
Format settings, CABAC                   : Yes
Format settings, ReFrames                : 5 frames
Codec ID                                 : avc1
Codec ID/Info                            : Advanced Video Coding
Duration                                 : 2h 17mn
Bit rate mode                            : Variable
Bit rate                                 : 1 650 Kbps
Maximum bit rate                         : 20.0 Mbps
Width                                    : 1 280 pixels
Height                                   : 536 pixels
Display aspect ratio                     : 2.40:1
Frame rate mode                          : Constant
Frame rate                               : 24.000 fps
Color space                              : YUV
Chroma subsampling                       : 4:2:0
Bit depth                                : 8 bits
Scan type                                : Progressive
Bits/(Pixel*Frame)                       : 0.100
Stream size                              : 1.58 GiB (79%)
Writing library                          : x264 core 119 r2106 07efeb4
Encoding settings                        : rc=2pass

Audio
ID                                       : 2
Format                                   : AC-3
Format/Info                              : Audio Coding 3
Mode extension                           : CM (complete main)
Codec ID                                 : ac-3
Duration                                 : 2h 17mn
Bit rate mode                            : Constant
Bit rate                                 : 448 Kbps
Channel(s)                               : 6 channels
Channel positions                        : Front: L C R, Side: L R, LFE
Sampling rate                            : 48.0 KHz
Bit depth                                : 16 bits
Compression mode                         : Lossy
Stream size                              : 441 MiB (21%)


IMDB link:                                 http://www.imdb.com/title/tt0405094/


Subtitles included                       : Arabic, Chinese, Croatian, Danish,
                                           Dutch, English, Farsi, French,
                                           Hungarian, Portuguese, Romanian,
                                           Serbian, Spanish, Swedish


Please seed at least 1,5:1. This way this torrent has a chance to survive !


Thanks. Enjoy !!

Download utorrent client from http://www.utorrent.com/ before downloading from below magnet link

magnet:?xt=urn:btih:29428FEF004A3D09DB9948DDF7892684E7244359


The Lives of Others [2006] 720p BRRip H264 AC3 - CODY Fast Download



 
 
 
Dear visitor, you went to the site as an unregistered user. We encourage you to register or enter the site under your name.
 
   
 
 (Votes #: 0)