2013Zone For Latest Downloads

 
     
 
Legal Downloads » Torrents » PASSION HD
Menu
Home Applications
Games Movies
Music TV Shows
Torrents Graphics

Sitemap

RSS
 
Advanced Search
Last News
Site Info
Top Contributors:
  1    supper88 32766
  2    admin 32723
  3    Whisky 10080
  4    Shark_ 8911
  5    creativelivenew 8706
  6    whathesupa 2799
  7    candymypost 840
  8    hvnteam 629
  9    vuong87 3


Articles:
  This Hour: 0
  Today: 0
  This Month: 31
  All Time: 515496


Torrents:
  Today: 0
  Yesterday: 0
  All Time: 156680


Membership:
  Registered Today :0
  This Hour:0
  This Month:0
  Total:14
  Banned:1

{online}
{inform_torrent}
Friend:
Full Download Scripts
Torrent Download
Trend
Trend

Search In Site

Torrents : PASSION HD
 

Torrent name:PASSION HD

Seeds:0

Leechers:0

Health: 

Total size:638.94 MB

Torrent added:2012-05-23 20:47:25

Info hash:5FA19B77AF05A342264C8989B04E86845B18E391


Description:
 

[URL=http://imagecherry.com/9lo0kpfjjs75][IMG]http://imagecherry.com/i/00006/9lo0kpfjjs75_t.jpg[/IMG][/URL]

General
Complete name                            : D:PassionHD.12.03.21.Karina.Hot.Stone.Massage.XXX.720p.WMV-SkuLLFucKwmv_original.wmv
Format                                   : Windows Media
File size                                : 643 MiB
Duration                                 : 36mn 54s
Overall bit rate mode                    : Constant
Overall bit rate                         : 2 435 Kbps
Maximum Overall bit rate                 : 2 651 Kbps
Encoded date                             : UTC 2012-03-06 05:18:48.988

Video
ID                                       : 2
Format                                   : VC-1
Format profile                           : [email protected]
Codec ID                                 : WMV3
Codec ID/Info                            : Windows Media Video 9
Codec ID/Hint                            : WMV3
Description of the codec                 : Windows Media Video 9 - Professional
Duration                                 : 36mn 54s
Bit rate mode                            : Constant
Bit rate                                 : 2 500 Kbps
Width                                    : 1 280 pixels
Height                                   : 720 pixels
Display aspect ratio                     : 16:9
Frame rate                               : 23.976 fps
Nominal frame rate                       : 29.970 fps
Bit depth                                : 8 bits
Scan type                                : Progressive
Compression mode                         : Lossy
Bits/(Pixel*Frame)                       : 0.113
Stream size                              : 660 MiB

Audio
ID                                       : 1
Format                                   : WMA
Format version                           : Version 2
Codec ID                                 : 161
Codec ID/Info                            : Windows Media Audio
Description of the codec                 : Windows Media Audio 9.2 - 128 kbps, 44 kHz, stereo 2-pass CBR
Duration                                 : 36mn 54s
Bit rate mode                            : Constant
Bit rate                                 : 128 Kbps
Channel(s)                               : 2 channels
Sampling rate                            : 44.1 KHz
Bit depth                                : 16 bits
Stream size                              : 33.8 MiB (5%)

UNIC SCENES PASION WATCH HERE:

 
http://imagecherry.com/rcll1qg3haqn
 
http://imagecherry.com/lli75z103sin
 
http://imagecherry.com/74x66mynmwdy
 
http://imagecherry.com/3gn9tukak34v

Download utorrent client from http://www.utorrent.com/ before downloading from below magnet link

magnet:?xt=urn:btih:5FA19B77AF05A342264C8989B04E86845B18E391


PASSION HD Fast Download



 
 
 
Dear visitor, you went to the site as an unregistered user. We encourage you to register or enter the site under your name.
 
   
 
 (Votes #: 0)