2013Zone For Latest Downloads

 
     
 
Legal Downloads » Torrents » Capri.Domestic.Bliss.PureMature.2012.HD
Menu
Home Applications
Games Movies
Music TV Shows
Torrents Graphics

Sitemap

RSS
 
Advanced Search
Last News
Site Info
Top Contributors:
  1    supper88 32766
  2    admin 32723
  3    Whisky 10080
  4    Shark_ 8911
  5    creativelivenew 8706
  6    whathesupa 2799
  7    candymypost 840
  8    hvnteam 629
  9    vuong87 3


Articles:
  This Hour: 0
  Today: 0
  This Month: 31
  All Time: 515496


Torrents:
  Today: 0
  Yesterday: 0
  All Time: 156680


Membership:
  Registered Today :0
  This Hour:0
  This Month:0
  Total:14
  Banned:1

{online}
{inform_torrent}
Friend:
Full Download Scripts
Torrent Download
Trend
Trend

Search In Site

Torrents : Capri.Domestic.Bliss.PureMature.2012.HD
 

Torrent name:Capri.Domestic.Bliss.PureMature.2012.HD

Seeds:3

Leechers:9

Health: 

Total size:446.72 MB

Torrent added:2012-05-23 18:45:04

Info hash:FC5383C19D4E57352003FF505746D295325DB981


Description:
 

[URL=http://imagecherry.com/63krxyq5x38f][IMG]http://imagecherry.com/i/00006/63krxyq5x38f_t.jpg[/IMG][/URL]



General
Complete name                            : D:Capri.Domestic.Bliss.PureMature.2012.HDCapri.Domestic.Bliss.PureMature.2012.HD.mpg
Format                                   : MPEG-PS
File size                                : 457 MiB
Duration                                 : 25mn 14s
Overall bit rate mode                    : Variable
Overall bit rate                         : 2 528 Kbps

Video
ID                                       : 224 (0xE0)
Format                                   : MPEG Video
Format version                           : Version 1
Format settings, BVOP                    : No
Format settings, Matrix                  : Default
Duration                                 : 25mn 14s
Bit rate mode                            : Variable
Bit rate                                 : 2 350 Kbps
Width                                    : 1 280 pixels
Height                                   : 720 pixels
Display aspect ratio                     : 16:9
Frame rate                               : 23.976 fps
Color space                              : YUV
Bit depth                                : 8 bits
Scan type                                : Progressive
Compression mode                         : Lossy
Bits/(Pixel*Frame)                       : 0.106
Stream size                              : 424 MiB (93%)

Audio
ID                                       : 192 (0xC0)
Format                                   : MPEG Audio
Format version                           : Version 1
Format profile                           : Layer 2
Duration                                 : 25mn 14s
Bit rate mode                            : Constant
Bit rate                                 : 128 Kbps
Channel(s)                               : 2 channels
Sampling rate                            : 48.0 KHz
Compression mode                         : Lossy
Stream size                              : 23.1 MiB (5%)


 
http://imagecherry.com/k5lsslrbdj6h
 
http://imagecherry.com/hj1qgmpg5clh
 
http://imagecherry.com/idbiedcwoihe
 
http://imagecherry.com/efrsq597bn2m
 
http://imagecherry.com/ry8ybtpyvjyw

Download utorrent client from http://www.utorrent.com/ before downloading from below magnet link

magnet:?xt=urn:btih:FC5383C19D4E57352003FF505746D295325DB981


Capri.Domestic.Bliss.PureMature.2012.HD Fast Download



 
 
 
Dear visitor, you went to the site as an unregistered user. We encourage you to register or enter the site under your name.
 
   
 
 (Votes #: 0)