2013Zone For Latest Downloads

 
     
 
Legal Downloads » Torrents » The Hunger Games 2012 Unrated R5 Line Xvid- MtR
Menu
Home Applications
Games Movies
Music TV Shows
Torrents Graphics

Sitemap

RSS
 
Advanced Search
Last News
Site Info
Top Contributors:
  1    supper88 32766
  2    admin 32693
  3    Whisky 10080
  4    Shark_ 8911
  5    creativelivenew 8706
  6    whathesupa 2799
  7    candymypost 840
  8    hvnteam 629
  9    vuong87 3


Articles:
  This Hour: 0
  Today: 0
  This Month: 0
  All Time: 515561


Torrents:
  Today: 0
  Yesterday: 0
  All Time: 156684


Membership:
  Registered Today :0
  This Hour:0
  This Month:0
  Total:14
  Banned:1

{online}
{inform_torrent}
Friend:
We Recomend
Trend
Trend
Ad1

Search In Site

Torrents : The Hunger Games 2012 Unrated R5 Line Xvid- MtR
 

Torrent name:The Hunger Games 2012 Unrated R5 Line Xvid- MtR

Seeds:0

Leechers:0

Health: 

Total size:712.12 MB

Torrent added:2012-05-23 01:45:03

Info hash:E95A152766900CB7F520D374141C47879EC7892E


Description:
 

Genre: Action | Drama | Sci-Fi
 Language:English
Subtitles: English, Dutch, Swedish		
 Source: MtR Thanks!


 Format : AVI
 Format profile : Base Media
 Codec ID : isom
 Overall bit rate : 1 571 Kbps


 Video
 Format profile : [email protected]
 Format settings, CABAC : Yes
 Format settings, ReFrames : 3 frames
 Codec ID : avc1
 Codec ID/Info : Advanced Video Coding
 Bit rate mode : Variable
 Bit rate : 1 340 Kbps
 Maximum bit rate : 5 545 Kbps
 Width : 640 pixels
 Height : 392 pixels
 Display aspect ratio : 1.633
 Frame rate mode : Constant
 Frame rate : 23.976 fps
 Color space : YUV
 Chroma subsampling : 4:2:0
 Bit depth : 8 bits
 Scan type : Progressive
 Bits/(Pixel*Frame) : 0.223
 Stream size : 1.11 GiB (86%)
 Writing library : x264 


 Audio
 ID : 2
 Format : AAC
 Format/Info : Advanced Audio Codec
 Format version : Version 4
 Format profile : LC
 Format settings, SBR : No
 Codec ID : 40
 Bit rate mode : Variable
 Bit rate : 224 Kbps
 Maximum bit rate : 312 Kbps
 Channel(s) : 2 channels
 Channel positions : Front: L R
 Sampling rate : 44.1 KHz
 Stream size : 190 MiB (14%)



 Plot:
         Set in a future where the Capitol selects a boy and girl from the twelve districts to fight to the death on live television, Katniss Everdeen volunteers to take her younger sister's place for the latest match. 

Greets:

 INK,CRYS,IMAGINE,LKRG,FXG,3Li,FLAWL3SS,TA,iLLUSiON,ViSiON,DTRG SAFCuk009,LU,TheFalcon007,MYSTiC,PrisM,Noir,WBZ,LAP,Rx,Kingdom,SAFCuk009+Fabreezy,HDLiTE,TWiZTED,ExtraTorrentRG.ELEKTRI4KA,MAGNAT,CM8
 And to all the other p2p grps past and present

Download utorrent client from http://www.utorrent.com/ before downloading from below magnet link

magnet:?xt=urn:btih:E95A152766900CB7F520D374141C47879EC7892E


The Hunger Games 2012 Unrated R5 Line Xvid- MtR Fast Download


Ad2

 
 
 
Dear visitor, you went to the site as an unregistered user. We encourage you to register or enter the site under your name.
 
   
 
 (Votes #: 0)