2013Zone For Latest Downloads

 
     
 
Legal Downloads » Torrents » The Pirates Band of Misfits 2012 R5 CAM AUDIO XviD-YanKeeS
Menu
Home Applications
Games Movies
Music TV Shows
Torrents Graphics

Sitemap

RSS
 
Advanced Search
Last News
Site Info
Top Contributors:
  1    supper88 32766
  2    admin 32651
  3    Whisky 10080
  4    Shark_ 8911
  5    creativelivenew 8706
  6    whathesupa 2799
  7    candymypost 840
  8    hvnteam 629
  9    vuong87 3


Articles:
  This Hour: 0
  Today: 0
  This Month: 12
  All Time: 515681


Torrents:
  Today: 0
  Yesterday: 0
  All Time: 156685


Membership:
  Registered Today :0
  This Hour:0
  This Month:0
  Total:14
  Banned:1

{online}
{inform_torrent}
Friend:
We Recomend
Trend
Trend
onlinemovies

Search In Site

Torrents : The Pirates Band of Misfits 2012 R5 CAM AUDIO XviD-YanKeeS
 

Torrent name:The Pirates Band of Misfits 2012 R5 CAM AUDIO XviD-YanKeeS

Seeds:0

Leechers:0

Health: 

Total size:700.14 MB

Torrent added:2012-05-25 02:40:38

Info hash:C36F8432C90467DECEF8471949E2F23DAC911EC7


Description:
 

The Pirates Band of Misfits 2012 R5 CAM AUDIO XviD-YanKeeS

IMDB link: http://www.imdb.com/title/tt1430626/

General
Format                           : AVI
Format/Info                      : Audio Video Interleave
Format profile                   : OpenDML
File size                        : 700 MiB
Duration                         : 1h 24mn
Overall bit rate                 : 1 158 Kbps

Video
ID                               : 0
Format                           : MPEG-4 Visual
Format profile                   : Advanced [email protected]
Format settings, BVOP            : 2
Format settings, QPel            : No
Format settings, GMC             : No warppoints
Format settings, Matrix          : Default (MPEG)
Muxing mode                      : Packed bitstream
Codec ID                         : XVID
Codec ID/Hint                    : XviD
Duration                         : 1h 24mn
Bit rate                         : 1 022 Kbps
Width                            : 640 pixels
Height                           : 272 pixels
Display aspect ratio             : 2.35:1
Frame rate                       : 25.000 fps
Color space                      : YUV
Chroma subsampling               : 4:2:0
Bit depth                        : 8 bits
Scan type                        : Progressive
Compression mode                 : Lossy
Bits/(Pixel*Frame)               : 0.235
Stream size                      : 618 MiB (88%)
Writing library                  : XviD 64

Audio
ID                               : 1
Format                           : MPEG Audio
Format version                   : Version 1
Format profile                   : Layer 3
Mode                             : Joint stereo
Mode extension                   : MS Stereo
Codec ID                         : 55
Codec ID/Hint                    : MP3
Duration                         : 1h 24mn
Bit rate mode                    : Constant
Bit rate                         : 128 Kbps
Channel(s)                       : 2 channels
Sampling rate                    : 48.0 KHz
Compression mode                 : Lossy
Stream size                      : 77.3 MiB (11%)
Alignment                        : Aligned on interleaves
Interleave, duration             : 24 ms (0.60 video frame)
Interleave, preload duration     : 192 ms
Title                            : English - YanKeeS


Notes:
Used Cam audio BBnRG (Thanks).
The final part of the movie was filled with Russian audio, but not interefe anything, because it only has only 3 min of Russian audio.


Poster:

 
http://i.imgur.com/RoApK.jpg


Screenshots:

 
http://i.imgur.com/nAdyx.png

 
http://i.imgur.com/5w2tP.png

 
http://i.imgur.com/i0Qoh.png


ENJOY!

Download utorrent client from http://www.utorrent.com/ before downloading from below magnet link

magnet:?xt=urn:btih:C36F8432C90467DECEF8471949E2F23DAC911EC7


 
 
 
Dear visitor, you went to the site as an unregistered user. We encourage you to register or enter the site under your name.
 
   
 
 (Votes #: 0)