2013Zone For Latest Downloads

 
     
 
Legal Downloads » Torrents » The.Client.List.S01E07.720p.WEB-DL.DD5.1.H.264-KiNGS
Menu
Home Applications
Games Movies
Music TV Shows
Torrents Graphics

Sitemap

RSS
 
Advanced Search
Last News
Site Info
Top Contributors:
  1    supper88 32766
  2    admin 32711
  3    Whisky 10080
  4    Shark_ 8911
  5    creativelivenew 8706
  6    whathesupa 2799
  7    candymypost 840
  8    hvnteam 629
  9    vuong87 3


Articles:
  This Hour: 0
  Today: 0
  This Month: 0
  All Time: 515503


Torrents:
  Today: 0
  Yesterday: 0
  All Time: 156678


Membership:
  Registered Today :0
  This Hour:0
  This Month:0
  Total:14
  Banned:1

{online}
{inform_torrent}
Friend:
Full Download Scripts
Torrent Download
Trend
Trend

Search In Site

Torrents : The.Client.List.S01E07.720p.WEB-DL.DD5.1.H.264-KiNGS
 

Torrent name:The.Client.List.S01E07.720p.WEB-DL.DD5.1.H.264-KiNGS

Seeds:0

Leechers:0

Health: 

Total size:1.34 GB

Torrent added:2012-05-27 14:21:57

Info hash:89DB08BBF8829C6E840C61854BF283863B066976


Description:
 

General
Unique ID                                : 248507498785622118404670429363363346039 (0xBAF4CDA723C7AF58815B9ECC0FD37677)
Complete name                            : D:iTunesTV ShowsThe Client ListThe.Client.List.S01E07.720p.WEB-DL.DD5.1.H.264-KiNGSThe.Client.List.S01E07.720p.WEB-DL.DD5.1.H.264-KiNGS.mkv
Format                                   : Matroska
Format version                           : Version 2
File size                                : 1.34 GiB
Duration                                 : 41mn 5s
Overall bit rate                         : 4 666 Kbps
Encoded date                             : UTC 2012-05-22 04:37:04
Writing application                      : mkvmerge v5.5.0 ('Healer') built on Apr  6 2012 21:43:24
Writing library                          : libebml v1.2.3 + libmatroska v1.3.0

Video
ID                                       : 1
Format                                   : AVC
Format/Info                              : Advanced Video Codec
Format profile                           : [email protected]
Format settings, CABAC                   : No
Format settings, ReFrames                : 2 frames
Codec ID                                 : V_MPEG4/ISO/AVC
Duration                                 : 41mn 5s
Bit rate                                 : 4 189 Kbps
Width                                    : 1 280 pixels
Height                                   : 720 pixels
Display aspect ratio                     : 16:9
Frame rate                               : 23.976 fps
Color space                              : YUV
Chroma subsampling                       : 4:2:0
Bit depth                                : 8 bits
Scan type                                : Progressive
Bits/(Pixel*Frame)                       : 0.190
Stream size                              : 1.20 GiB (90%)
Language                                 : English
Default                                  : Yes
Forced                                   : No
Color primaries                          : BT.709-5, BT.1361, IEC 61966-2-4, SMPTE RP177
Transfer characteristics                 : BT.709-5, BT.1361
Matrix coefficients                      : BT.709-5, BT.1361, IEC 61966-2-4 709, SMPTE RP177

Audio
ID                                       : 2
Format                                   : AC-3
Format/Info                              : Audio Coding 3
Mode extension                           : CM (complete main)
Format settings, Endianness              : Big
Codec ID                                 : A_AC3
Duration                                 : 41mn 5s
Bit rate mode                            : Constant
Bit rate                                 : 384 Kbps
Channel(s)                               : 6 channels
Channel positions                        : Front: L C R, Side: L R, LFE
Sampling rate                            : 48.0 KHz
Bit depth                                : 16 bits
Compression mode                         : Lossy
Stream size                              : 113 MiB (8%)
Language                                 : English
Default                                  : Yes
Forced                                   : No

Download utorrent client from http://www.utorrent.com/ before downloading from below magnet link

magnet:?xt=urn:btih:89DB08BBF8829C6E840C61854BF283863B066976


The.Client.List.S01E07.720p.WEB-DL.DD5.1.H.264-KiNGS Fast Download



 
 
 
Dear visitor, you went to the site as an unregistered user. We encourage you to register or enter the site under your name.
 
   
 
 (Votes #: 0)