Advertise
onlinemovies


Bad.Ass.2012.720p BRRip x264 Feel-Free

Published On: 29-05-2012, 14:45

Torrent name:Bad.Ass.2012.720p BRRip x264 Feel-Free

Seeds:8

Leechers:58

Health: 

Total size:2.1 GB

Torrent added:2012-05-29 18:13:39

Info hash:23EFFD3A8678B6B11A470277A28A48FD68AA1290


Description:

8888888888 888 8888888888 888 888 888 888 888 888 8888888 .d88b. .d88b. 888 8888888 888d888 .d88b. .d88b. 888 d8P Y8b d8P Y8b 888 888 888P" d8P Y8b d8P Y8b 888 88888888 88888888 888 888 888 88888888 88888888 888 Y8b. Y8b. 888 888 888 Y8b. Y8b. 888 "Y8888 "Y8888 888 888 888 "Y8888 "Y8888 Genre:Action | Fantasy | Sci-Fi Language:English IMDb:http://www.imdb.com/title/tt1928330/ Source:720p.BluRay-HDChina Thanks! Encoder:Tony Format : MPEG-4 Format profile : Base Media Codec ID : isom File size : 2.10 GiB Duration : 1h 30mn Overall bit rate mode : Variable Overall bit rate : 3 331 Kbps Video ID : 1 Format : AVC Format/Info : Advanced Video Codec Format profile : [email protected] Format settings, CABAC : Yes Format settings, ReFrames : 8 frames Codec ID : avc1 Codec ID/Info : Advanced Video Coding Duration : 1h 30mn Bit rate : 3 000 Kbps Maximum bit rate : 15.7 Mbps Width : 1 280 pixels Height : 688 pixels Display aspect ratio : 1.85:1 Frame rate mode : Constant Frame rate : 23.976 fps Color space : YUV Chroma subsampling : 4:2:0 Bit depth : 8 bits Scan type : Progressive Bits/(Pixel*Frame) : 0.142 Stream size : 1.82 GiB (87%) Writing library : x264 Audio ID : 2 Format : AAC Format/Info : Advanced Audio Codec Format profile : LC Codec ID : 40 Duration : 1h 30mn Bit rate mode : Variable Bit rate : 438 Kbps Maximum bit rate : 578 Kbps Channel(s) : 6 channels Channel positions : Front: L C R, Side: L R, LFE Sampling rate : 48.0 KHz Compression mode : Lossy Stream size : 283 MiB (13%) Plot: A Vietnam veteran who becomes a local hero after saving a man from attackers on a city bus decides to take action when his best friend is murdered and the police show little interest in solving the crime. Screen Shots: http://img822.imageshack.us/img822/9867/vlcsnap2012052918h58m59.png http://img98.imageshack.us/img98/5620/vlcsnap2012052918h59m12.png http://img804.imageshack.us/img804/8849/vlcsnap2012052918h59m43.png http://img716.imageshack.us/img716/5269/vlcsnap2012052919h00m05.png http://img824.imageshack.us/img824/492/vlcsnap2012052918h59m52.png 8888888888 888 8888888888 888 888 888 888 888 888 8888888 .d88b. .d88b. 888 8888888 888d888 .d88b. .d88b. 888 d8P Y8b d8P Y8b 888 888 888P" d8P Y8b d8P Y8b 888 88888888 88888888 888 888 888 88888888 88888888 888 Y8b. Y8b. 888 888 888 Y8b. Y8b. 888 "Y8888 "Y8888 888 888 888 "Y8888 "Y8888

Download utorrent client from http://www.utorrent.com/ before downloading from below magnet link

[related-news][/related-news]
Dear visitor, you are browsing our website as Guest.
We strongly recommend you to register and login to view hidden contents.

Comments:

Add Comments
 

This site doesn't store any files on its server. We only index and link to content provided by other sites.