2013Zone For Latest Downloads

 
     
 
Legal Downloads » Torrents » Hulk 1-2 Duology 2003-2008 720p.x264
Menu
Home Applications
Games Movies
Music TV Shows
Torrents Graphics

Sitemap

RSS
 
Advanced Search
Last News
Site Info
Top Contributors:
  1    supper88 32766
  2    admin 32683
  3    Whisky 10080
  4    Shark_ 8911
  5    creativelivenew 8706
  6    whathesupa 2799
  7    candymypost 840
  8    hvnteam 629
  9    vuong87 3


Articles:
  This Hour: 0
  Today: 0
  This Month: 52
  All Time: 515552


Torrents:
  Today: 0
  Yesterday: 0
  All Time: 156675


Membership:
  Registered Today :0
  This Hour:0
  This Month:0
  Total:14
  Banned:1

{online}
{inform_torrent}
Friend:
Nulled Script Download
Torrent Download
Trend
Trend
VPN_ad

Search In Site

Torrents : Hulk 1-2 Duology 2003-2008 720p.x264
 

Torrent name:Hulk 1-2 Duology 2003-2008 720p.x264

Seeds:0

Leechers:0

Health: 

Total size:1.56 GB

Torrent added:2012-05-20 17:26:40

Info hash:339F9DB3F34F3FD21CF14C6FECEFAFFB00528CAF


Description:
 

[img]http://img802.imageshack.us/img802/7859/hulk2003.jpg[/img]

NAME : HULK2003
FORMAT : MP4
FILE SIZE : 0.97GB
SUBTITLES : ENGLISH
ENCODER   : StErN9

VIDEO SPECS :

      Format : AVC
      Duration : 2h 18mn
      Bit rate : 840 Kbps
      Maximum bit rate : 5 438 Kbps
      Width : 1 280 pixels
      Height : 536 pixels
      Display aspect ratio : 2.40:1
      Frame rate : 23.976 fps
      Stream size : 830 MiB (83%)

AUDIO SPECS:

      Format : AAC
      Codec ID : 40
      Duration : 2h 18mn
      Bit rate mode : Variable
      Bit rate : 170 Kbps
      Maximum bit rate : 220 Kbps
      Channel(s) : 2 channels
      Channel positions : Front: L R
      Sampling rate : 48.0 KHz
      Compression mode : Lossy
      Stream size : 168 MiB (17%)

 IMDb :   [url]http://www.imdb.com/title/tt0286716/[/url]

SNAPSHOT :[img]http://img855.imageshack.us/img855/504/hul.png[/img]

[img]http://img269.imageshack.us/img269/8318/hulk1g.jpg[/img]
NAME : The Incredible Hulk 2-2008
FORMAT : MP4
FILE SIZE : 0.97GB
SUBTITLES : ENGLISH
ENCODER   : StErN9

VIDEO SPECS :
       
      Format : AVC
      Duration : 1h 52mn
      Bit rate : 771 Kbps
      Maximum bit rate : 5 280 Kbps
      Width : 1 280 pixels
      Height : 544 pixels
      Display aspect ratio : 2.35:1
      Frame rate mode : Constant
      Frame rate : 23.976 fps
      Stream size : 618 MiB (62%)
   
     AUDIO SPECS :

      Format : AAC
      Codec ID : 40
      Duration : 1h 52mn
      Bit rate mode : Variable
      Bit rate : 472 Kbps
      Maximum bit rate : 549 Kbps
      Channel(s) : 6 channels
      Channel positions : Front: L C R, Side: L R, LFE
      Sampling rate : 48.0 KHz
      Compression mode : Lossy
      Stream size : 379 MiB (38%)
    IMDb :  [url]http://www.imdb.com/title/tt0800080/[/url]

SNAPSHOT : [img]http://img38.imageshack.us/img38/4863/hulk2x.png[/img]

Download utorrent client from http://www.utorrent.com/ before downloading from below magnet link

magnet:?xt=urn:btih:339F9DB3F34F3FD21CF14C6FECEFAFFB00528CAF


Hulk 1-2 Duology 2003-2008 720p.x264 Fast Download


Cheap VPN

 
 
 
Dear visitor, you went to the site as an unregistered user. We encourage you to register or enter the site under your name.
 
   
 
 (Votes #: 0)