Advertise
onlinemovies


New York New York [1977] 720p BRRip H264 AC3 - CODY

Published On: 29-05-2012, 15:45

Torrent name:New York New York [1977] 720p BRRip H264 AC3 - CODY

Seeds:0

Leechers:0

Health: 

Total size:2.91 GB

Torrent added:2012-05-29 20:48:23

Info hash:7E6A6128D2A4F788160858042C2F6B7B7B8B7DFE


Description:

General Complete name : New York New York [1977] 720p BRRip H264 AC3 - CODY.mp4 Format : MPEG-4 Format profile : Base Media Codec ID : isom File size : 2.91 GiB Duration : 2h 43mn Overall bit rate mode : Variable Overall bit rate : 2 551 Kbps Encoded date : UTC 2012-03-11 11:08:37 Video ID : 1 Format : AVC Format/Info : Advanced Video Codec Format profile : [email protected] Format settings, CABAC : Yes Format settings, ReFrames : 4 frames Codec ID : avc1 Codec ID/Info : Advanced Video Coding Duration : 2h 43mn Bit rate mode : Variable Bit rate : 2 100 Kbps Maximum bit rate : 20.0 Mbps Width : 1 200 pixels Height : 720 pixels Display aspect ratio : 1.667 Frame rate mode : Constant Frame rate : 23.976 fps Color space : YUV Chroma subsampling : 4:2:0 Bit depth : 8 bits Scan type : Progressive Bits/(Pixel*Frame) : 0.101 Stream size : 2.39 GiB (82%) Writing library : x264 core 119 r2106 07efeb4 Encoding settings : rc=2pass Audio ID : 2 Format : AC-3 Format/Info : Audio Coding 3 Mode extension : CM (complete main) Codec ID : ac-3 Duration : 2h 43mn Bit rate mode : Constant Bit rate : 448 Kbps Channel(s) : 6 channels Channel positions : Front: L C R, Side: L R, LFE Sampling rate : 48.0 KHz Bit depth : 16 bits Compression mode : Lossy Stream size : 523 MiB (18%) IMDB link: http://www.imdb.com/title/tt0076451/ Subtitles included : Romanian Please seed at least 1,5:1. This way this torrent has a chance to survive ! Thanks. Enjoy !!

Download utorrent client from http://www.utorrent.com/ before downloading from below magnet link

[related-news][/related-news]
Dear visitor, you are browsing our website as Guest.
We strongly recommend you to register and login to view hidden contents.

Comments:

Add Comments
 

This site doesn't store any files on its server. We only index and link to content provided by other sites.