Advertise
onlinemovies


Men in Black III [2012] DVDRIP.AC3.XViD.DEC

Published On: 29-05-2012, 15:47

Torrent name:Men in Black III [2012] DVDRIP.AC3.XViD.DEC

Seeds:0

Leechers:0

Health: 

Total size:800.24 MB

Torrent added:2012-05-29 21:26:16

Info hash:3A6AE34B037BA62CF085057C5EA82C7A751F6C1E


Description:

http://imageshack.us/photo/my-images/822/58773998.jpg/ http://imageshack.us/photo/my-images/341/35652223.jpg/ http://imageshack.us/photo/my-images/194/76352107.jpg/ http://imageshack.us/photo/my-images/252/82030982.jpg/ http://imageshack.us/photo/my-images/440/21436974.jpg/ http://imageshack.us/photo/my-images/811/78942089.jpg/ http://imageshack.us/photo/my-images/31/12488980.jpg/ http://imageshack.us/photo/my-images/341/42528384.jpg/ http://imageshack.us/photo/my-images/338/36566162.jpg/ http://imageshack.us/photo/my-images/812/41867037.jpg/ Details: ------- Video ID : 0 Format : MPEG-4 Visual Format profile : [email protected] Format settings, BVOP : Yes Format settings, QPel : No Format settings, GMC : No warppoints Format settings, Matrix : Custom Codec ID : XVID Codec ID/Hint : XviD Duration : 1h 41mn Bit rate : 1 625 Kbps Width : 720 pixels Height : 304 pixels Display aspect ratio : 2.35:1 Frame rate : 23.976 fps Resolution : 24 bits Colorimetry : 4:2:0 Scan type : Progressive Bits/(Pixel*Frame) : 0.310 Stream size : 691 MiB (99%) Writing library : XviD 58 Audio ID : 1 Format : AC-3 Format/Info : Audio Coding 3 Codec ID : 2000 Duration : 1h 41mn Bit rate mode : Constant Bit rate : 192 Kbps Channel(s) : 2 channels Channel positions : L R Sampling rate : 48.0 KHz Stream size : 147 MiB (11%) Alignment : Aligned on interleaves Interleave, duration : 64 ms (1.53 video frames) Interleave, preload duration : 192 ms -----------------------------------------

Download utorrent client from http://www.utorrent.com/ before downloading from below magnet link

[related-news][/related-news]
Dear visitor, you are browsing our website as Guest.
We strongly recommend you to register and login to view hidden contents.

Comments:

Add Comments
 

This site doesn't store any files on its server. We only index and link to content provided by other sites.