2013Zone For Latest Downloads

 
     
 
Legal Downloads » Torrents » G.I. Joe - Retaliation (2012) R5 XViD AC3 � IMAGiNE
Menu
Home Applications
Games Movies
Music TV Shows
Torrents Graphics

Sitemap

RSS
 
Advanced Search
Last News
Site Info
Top Contributors:
  1    supper88 32766
  2    admin 32693
  3    Whisky 10080
  4    Shark_ 8911
  5    creativelivenew 8706
  6    whathesupa 2799
  7    candymypost 840
  8    hvnteam 629
  9    vuong87 3


Articles:
  This Hour: 0
  Today: 10
  This Month: 62
  All Time: 515562


Torrents:
  Today: 0
  Yesterday: 0
  All Time: 156685


Membership:
  Registered Today :0
  This Hour:0
  This Month:0
  Total:14
  Banned:1

{online}
{inform_torrent}
Friend:
We Recomend
Trend
Trend
XsAd

Search In Site

Torrents : G.I. Joe - Retaliation (2012) R5 XViD AC3 � IMAGiNE
 

Torrent name:G.I. Joe - Retaliation (2012) R5 XViD AC3 � IMAGiNE

Seeds:0

Leechers:0

Health: 

Total size:747.89 MB

Torrent added:2012-05-23 19:04:09

Info hash:7C9772B4A0E237D340D10A9EA87F5BA2EB5184C7


Description:
 

[img]http://www3.picturepush.com/photo/a/8353126/640/Picture-Box/G.I.-Joe-Retaliation-%282012%29.jpg[/img]
G.I. Joe - Retaliation (2012) R5 Xvid DutchReleaseTeam
Format : WMV
Format/Info : Audio Video Interleave
Format profile : OpenDML
Duration : 2h 4mn
Overall bit rate : 1 312 Kbps
Writing application : VirtualDubMod 1.5.10.2 (build 2542/release)
Copyright : SIGISMUNT
Video
ID : 0
Format : MPEG-4 Visual
Format profile : [email protected]
Format settings, BVOP : Yes
Format settings, QPel : No
Format settings, GMC : No warppoints
Format settings, Matrix : Default (H.263)
Muxing mode : Packed bitstream
Codec ID : XVID
Codec ID/Hint : XviD
Duration : 2h 4mn
Bit rate : 1 116 Kbps
Width : 640 pixels
Height : 272 pixels
Display aspect ratio : 2.35:1
Frame rate : 23.976 fps
Resolution : 24 bits
Colorimetry : 4:2:0
Scan type : Progressive
Bits/(Pixel*Frame) : 0.267
Stream size : 991 MiB (85%)
Writing library : XviD 1.2.1 (UTC 2008-12-04)
Audio
ID : 1
Format : MPEG Audio
Format version : Version 1
Format profile : Layer 3
Codec ID : 55
Codec ID/Hint : MP3
Duration : 2h 4mn
Bit rate mode : Constant
Bit rate : 192 Kbps
Channel(s) : 2 channels
Sampling rate : 48.0 KHz
Resolution : 16 bits
Stream size : 171 MiB (15%)
Alignment : Aligned on interleaves
Interleave, duration : 652 ms (15.64 video frames)
Interleave, preload duration : 216 ms
Writing library : LAME3.96.1
Source: DVD (perfect a/v/sync quality,sample included)
This torrent is not seedbox supported,please seed it to the MAX
 
Note:If you have something to offer as early releases,seedboxes,links,accounts,etc
please contact us on piratepedia[@]msn/gmail.com or our website torentz 3xforum ro
How To Get Your Maxspeed (uTorrent)
Torrent Client - Preferences - Bandwidth - Number of connections - Set aprox. 500 for each 
Torrent Client - Preferences - BiTorrent - Protocol Encryption - Forced
Bandwidth Allocation - High (Set download/upload limit - Unlimited)
Stop Other Active Torrents - Start downloading and wait for connections.
Enjoy and Seed for at least 1:1 ratio. Don't forget to say thanks/leave reviews.
Before downloading you should check/google search sample "release name""sample".
Greets to all actual/future p2p/scene QUALITY groups and affiliate websites.
Don't trust IMDb robot or bad ratings,always watch some trailers first.
Ignore stupid comments/fake/mislabeled/no-DVDrips/CAM/TS/RAR uploads.
Please spread this release/torrent to your friends/forums/etc.
If you need translation subs visit some subtitles sites.
Report if you see online streaming or other spam links.
Recommended movie player VLC PLAYER.
[img]http://www4.picturepush.com/photo/a/8353127/640/Picture-Box/G.I.-Joe--Retaliation-2012---Screenshot.bmp[/img]

Download utorrent client from http://www.utorrent.com/ before downloading from below magnet link

magnet:?xt=urn:btih:7C9772B4A0E237D340D10A9EA87F5BA2EB5184C7


G.I. Joe - Retaliation (2012) R5 XViD AC3 � IMAGiNE Fast Download


XsAd2

 
 
 
Dear visitor, you went to the site as an unregistered user. We encourage you to register or enter the site under your name.
 
   
 
 (Votes #: 0)