2013Zone For Latest Downloads

 
     
 
Legal Downloads » Torrents » SILK_S01_E01-03_720p.HDTV.x264_TTL
Menu
Home Applications
Games Movies
Music TV Shows
Torrents Graphics

Sitemap

RSS
 
Advanced Search
Last News
Site Info
Top Contributors:
  1    supper88 32766
  2    admin 32693
  3    Whisky 10080
  4    Shark_ 8911
  5    creativelivenew 8706
  6    whathesupa 2799
  7    candymypost 840
  8    hvnteam 629
  9    vuong87 3


Articles:
  This Hour: 10
  Today: 10
  This Month: 62
  All Time: 515562


Torrents:
  Today: 0
  Yesterday: 10
  All Time: 156685


Membership:
  Registered Today :0
  This Hour:0
  This Month:0
  Total:14
  Banned:1

{online}
{inform_torrent}
Friend:
We Recomend
Trend
Trend
VPN_ad

Search In Site

Torrents : SILK_S01_E01-03_720p.HDTV.x264_TTL
 

Torrent name:SILK_S01_E01-03_720p.HDTV.x264_TTL

Seeds:0

Leechers:0

Health: 

Total size:4.38 GB

Torrent added:2012-05-29 20:21:03

Info hash:31650C1EBBB3070295036CEA7F25B09FF9192D07


Description:
 

All credit to the original capper. I just run these through an older version of MKV Merge  so that they are more compatible with more devices.																														                                                Rest to follow when the second disc I loaned out is returned. Shouldn't be more than a week			         																																													                               Enjoy and please share																																																																																	TTLTTLTTLTTLTTLTTLTTLTTLTTLTTLTTLTTLTTLTTLTTLTTLTTLTTLTTLTTL																																																													                                       Silk_S01_E01_720p.HDTV.x264_TTL.mkv
Format                           : Matroska
File size                        : 1.46 GiB
Duration                         : 57mn 6s
Overall bit rate                 : 3 656 Kbps
Encoded date                     : UTC 2012-05-27 03:36:38
Writing application              : mkvmerge v2.4.0 ('Fumbling Towards Ecstasy') built on Oct 11 2008 20:13:15
Writing library                  : libebml v0.7.7 + libmatroska v0.8.1

Video
ID                               : 1
Format                           : AVC
Format/Info                      : Advanced Video Codec
Format profile                   : [email protected]
Format settings, CABAC           : Yes
Format settings, ReFrames        : 4 frames
Muxing mode                      : Container [email protected]
Codec ID                         : V_MPEG4/ISO/AVC
Duration                         : 57mn 6s
Bit rate                         : 3 392 Kbps
Nominal bit rate                 : 3 461 Kbps
Width                            : 1 280 pixels
Height                           : 720 pixels
Display aspect ratio             : 16:9
Frame rate                       : 25.000 fps
Resolution                       : 8 bits
Colorimetry                      : 4:2:0
Scan type                        : Progressive
Bits/(Pixel*Frame)               : 0.147
Stream size                      : 1.35 GiB (93%)
Writing library                  : x264 core 114 r1900 60ef1f8

Audio
ID                               : 2
Format                           : AC-3
Format/Info                      : Audio Coding 3
Codec ID                         : A_AC3
Duration                         : 57mn 6s
Bit rate mode                    : Constant
Bit rate                         : 192 Kbps
Channel(s)                       : 2 channels
Channel positions                : L R
Sampling rate                    : 48.0 KHz
Stream size                      : 78.4 MiB (5%)
Language                         : English

Text
ID                               : 3
Format                           : SSA
Codec ID                         : S_TEXT/SSA
Codec ID/Info                    : Sub Station Alpha
Language                         : English

Download utorrent client from http://www.utorrent.com/ before downloading from below magnet link

magnet:?xt=urn:btih:31650C1EBBB3070295036CEA7F25B09FF9192D07


SILK_S01_E01-03_720p.HDTV.x264_TTL Fast Download


Cheap VPN

 
 
 
Dear visitor, you went to the site as an unregistered user. We encourage you to register or enter the site under your name.
 
   
 
 (Votes #: 0)