2013Zone For Latest Downloads

 
     
 
Legal Downloads » Torrents » Snow White and the Huntsman (2012) DVDScR XviD.AC3 - AZEX
Menu
Home Applications
Games Movies
Music TV Shows
Torrents Graphics

Sitemap

RSS
 
Advanced Search
Last News
Site Info
Top Contributors:
  1    supper88 32766
  2    admin 32683
  3    Whisky 10080
  4    Shark_ 8911
  5    creativelivenew 8706
  6    whathesupa 2799
  7    candymypost 840
  8    hvnteam 629
  9    vuong87 3


Articles:
  This Hour: 0
  Today: 0
  This Month: 52
  All Time: 515552


Torrents:
  Today: 0
  Yesterday: 0
  All Time: 156675


Membership:
  Registered Today :0
  This Hour:0
  This Month:0
  Total:14
  Banned:1

{online}
{inform_torrent}
Friend:
Download Nulled Scripts
Torrent Download
Trend
Trend
VPN_ad

Search In Site

Torrents : Snow White and the Huntsman (2012) DVDScR XviD.AC3 - AZEX
 

Torrent name:Snow White and the Huntsman (2012) DVDScR XviD.AC3 - AZEX

Seeds:45

Leechers:42

Health: 

Total size:734.51 MB

Torrent added:2012-05-31 20:03:39

Info hash:2FC4D0135C24E41FA4DF601CEA6EBBD18192EBE8


Description:
 

IMDb:  http://www.imdb.com/title/tt1735898/
-------------------------------------------

Snow White and the Huntsman (2012) DVDScR_XviD.AC3 - AZEX
---------------------------------------------------------

Sample.........................: Yes

Sample Size....................: 41.7 MiB
-----------------------------------------

Details:
-------

Video
ID                               : 0
Format                           : MPEG-4 Visual
Format profile                   : [email protected]
Format settings, BVOP            : Yes
Format settings, QPel            : No
Format settings, GMC             : No warppoints
Format settings, Matrix          : Custom
Codec ID                         : XVID
Codec ID/Hint                    : XviD
Duration                         : 2h 07mn
Bit rate                         : 1 625 Kbps
Width                            : 720 pixels
Height                           : 304 pixels
Display aspect ratio             : 2.35:1
Frame rate                       : 23.976 fps
Resolution                       : 24 bits
Colorimetry                      : 4:2:0
Scan type                        : Progressive
Bits/(Pixel*Frame)               : 0.310
Stream size                      : 691 MiB (99%)
Writing library                  : XviD 58

Audio
ID                               : 1
Format                           : AC-3
Format/Info                      : Audio Coding 3
Codec ID                         : 2000
Duration                         : 2h 07mn
Bit rate mode                    : Constant
Bit rate                         : 192 Kbps
Channel(s)                       : 2 channels
Channel positions                : L R
Sampling rate                    : 48.0 KHz
Stream size                      : 147 MiB (11%)
Alignment                        : Aligned on interleaves
Interleave, duration             : 64 ms (1.53 video frames)
Interleave, preload duration     : 192 ms
-----------------------------------------

Plot:
----

In a twist to the fairy tale, the Huntsman ordered to 
take Snow White into the woods to be killed winds up 
becoming her protector and mentor in a 
quest to vanquish the Evil Queen.
--------------------------------

Screenshots:
-----------
---------------------

Download utorrent client from http://www.utorrent.com/ before downloading from below magnet link

magnet:?xt=urn:btih:2FC4D0135C24E41FA4DF601CEA6EBBD18192EBE8


Snow White and the Huntsman (2012) DVDScR XviD.AC3 - AZEX Fast Download


Cheap VPN

 
 
 
Dear visitor, you went to the site as an unregistered user. We encourage you to register or enter the site under your name.
 
   
 
 (Votes #: 0)