Advertise
onlinemovies


Snow White and the Huntsman (2012) DVDScR XviD.AC3 - AZEX

Published On: 31-05-2012, 15:45

Torrent name:Snow White and the Huntsman (2012) DVDScR XviD.AC3 - AZEX

Seeds:45

Leechers:42

Health: 

Total size:734.51 MB

Torrent added:2012-05-31 21:03:39

Info hash:2FC4D0135C24E41FA4DF601CEA6EBBD18192EBE8


Description:

IMDb: http://www.imdb.com/title/tt1735898/ ------------------------------------------- Snow White and the Huntsman (2012) DVDScR_XviD.AC3 - AZEX --------------------------------------------------------- Sample.........................: Yes Sample Size....................: 41.7 MiB ----------------------------------------- Details: ------- Video ID : 0 Format : MPEG-4 Visual Format profile : [email protected] Format settings, BVOP : Yes Format settings, QPel : No Format settings, GMC : No warppoints Format settings, Matrix : Custom Codec ID : XVID Codec ID/Hint : XviD Duration : 2h 07mn Bit rate : 1 625 Kbps Width : 720 pixels Height : 304 pixels Display aspect ratio : 2.35:1 Frame rate : 23.976 fps Resolution : 24 bits Colorimetry : 4:2:0 Scan type : Progressive Bits/(Pixel*Frame) : 0.310 Stream size : 691 MiB (99%) Writing library : XviD 58 Audio ID : 1 Format : AC-3 Format/Info : Audio Coding 3 Codec ID : 2000 Duration : 2h 07mn Bit rate mode : Constant Bit rate : 192 Kbps Channel(s) : 2 channels Channel positions : L R Sampling rate : 48.0 KHz Stream size : 147 MiB (11%) Alignment : Aligned on interleaves Interleave, duration : 64 ms (1.53 video frames) Interleave, preload duration : 192 ms ----------------------------------------- Plot: ---- In a twist to the fairy tale, the Huntsman ordered to take Snow White into the woods to be killed winds up becoming her protector and mentor in a quest to vanquish the Evil Queen. -------------------------------- Screenshots: ----------- ---------------------

Download utorrent client from http://www.utorrent.com/ before downloading from below magnet link

[related-news][/related-news]
Dear visitor, you are browsing our website as Guest.
We strongly recommend you to register and login to view hidden contents.

Comments:

Add Comments
 

This site doesn't store any files on its server. We only index and link to content provided by other sites.