2013Zone For Latest Downloads

 
     
 
Legal Downloads » Torrents » The Hunger Games [2012] DVDRIP.AC3.XViD.MAX
Menu
Home Applications
Games Movies
Music TV Shows
Torrents Graphics

Sitemap

RSS
 
Advanced Search
Last News
Site Info
Top Contributors:
  1    supper88 32766
  2    admin 32630
  3    Whisky 10080
  4    Shark_ 8911
  5    creativelivenew 8706
  6    whathesupa 2799
  7    candymypost 840
  8    hvnteam 629
  9    vuong87 3


Articles:
  This Hour: 0
  Today: 0
  This Month: 44
  All Time: 515735


Torrents:
  Today: 0
  Yesterday: 0
  All Time: 156682


Membership:
  Registered Today :0
  This Hour:0
  This Month:0
  Total:14
  Banned:1

{online}
{inform_torrent}
Friend:
We Recomend
Trend
Trend
onlinemovies

Search In Site

Torrents : The Hunger Games [2012] DVDRIP.AC3.XViD.MAX
 

Torrent name:The Hunger Games [2012] DVDRIP.AC3.XViD.MAX

Seeds:0

Leechers:0

Health: 

Total size:800.24 MB

Torrent added:2012-06-07 15:41:26

Info hash:71B3A8078DE710AAE0DADEB621BE7CCAF9BD9B54


Description:
 

IMDb: http://www.imdb.com/title/tt1392170/
------------------------------------------

The Hunger Games [2012] DVDRIP.AC3.XViD.MAX
----------------------------------------------

Sample....................: Yes

Sample Size...............: 6.51 MiB
------------------------------------

Details:
-------

Video
ID                               : 0
Format                           : MPEG-4 Visual
Format profile                   : [email protected]
Format settings, BVOP            : Yes
Format settings, QPel            : No
Format settings, GMC             : No warppoints
Format settings, Matrix          : Custom
Codec ID                         : XVID
Codec ID/Hint                    : XviD
Duration                         : 2h 22mn
Bit rate                         : 1 625 Kbps
Width                            : 720 pixels
Height                           : 304 pixels
Display aspect ratio             : 2.35:1
Frame rate                       : 23.976 fps
Resolution                       : 24 bits
Colorimetry                      : 4:2:0
Scan type                        : Progressive
Bits/(Pixel*Frame)               : 0.310
Stream size                      : 691 MiB (99%)
Writing library                  : XviD 58

Audio
ID                               : 1
Format                           : AC-3
Format/Info                      : Audio Coding 3
Codec ID                         : 2000
Duration                         : 2h 22mn
Bit rate mode                    : Constant
Bit rate                         : 192 Kbps
Channel(s)                       : 2 channels
Channel positions                : L R
Sampling rate                    : 48.0 KHz
Stream size                      : 147 MiB (11%)
Alignment                        : Aligned on interleaves
Interleave, duration             : 64 ms (1.53 video frames)
Interleave, preload duration     : 192 ms
-----------------------------------------

Plot:
----

Set in a future where the Capitol selects a boy and girl from 
the twelve districts to fight to the death on live television, 
Katniss Everdeen volunteers to take her younger sister's place 
for the latest match.
--------------------

Screenshots:
-----------
 
http://imageshack.us/photo/my-images/201/81403308.jpg/ 
http://imageshack.us/photo/my-images/193/10684415.jpg/ 
http://imageshack.us/photo/my-images/28/17490449.jpg/ 
http://imageshack.us/photo/my-images/38/90669641.jpg/ 
http://imageshack.us/photo/my-images/856/92629209.jpg/ 
http://imageshack.us/photo/my-images/69/85389923.jpg/ 
http://imageshack.us/photo/my-images/685/67379728.jpg/ 
http://imageshack.us/photo/my-images/11/48038335.jpg/ 
http://imageshack.us/photo/my-images/689/20972444.jpg/ 
http://imageshack.us/photo/my-images/692/38796917.jpg/

Download utorrent client from http://www.utorrent.com/ before downloading from below magnet link

magnet:?xt=urn:btih:71B3A8078DE710AAE0DADEB621BE7CCAF9BD9B54


 
 
 
Dear visitor, you went to the site as an unregistered user. We encourage you to register or enter the site under your name.
 
   
 
 (Votes #: 0)